//TJADB Project
TITLE:Shouyou de Show You!
TITLEJA:しょうゆ de Show you!
SUBTITLE:--Yoshihito Yano (BNSI) feat. Steμ & Funadi
SUBTITLEJA:BNSI(矢野義人) feat.steμ&フナディ
BPM:144
WAVE:Shouyou de Show You!.ogg
OFFSET:-0.015
DEMOSTART:35.019

COURSE:Oni
LEVEL:9
SCOREINIT:1370
SCOREDIFF:0
#START
300000200200100100200200100200100000300000400000,
000000200200100100200200100200100000300000400000,
000000200200100102020200100200100000300000400000,
000000100200000100200000100200000100200000200200,
200000100100100000200000300000400000000000200200,
100000100100200200000200100200100000200000100200,
100000100100200200000200100200100100200000100200,
100000100100202020200200100200100000200000202020,
100000100100200200000200100200100100200000202020,
100000100100200200000200100200100000200000100200,
100000100100200200000200100200100100200000200200,
100000100100202020200100100200100000200000100200,
100000100100200200000200100200100100200100202020,
100000000000000000200000200000100200200100100000,
000000100100200000100100200000200100200100100000,
200100100200200000200000100000200200100000100000,
200200200000202020200000100000100100200200100000,
200100000100200100000100200000200100200100000100,
200100000200100100200000100000200100200000100000,
200000200100100000200100100200100100200000200000,
100200100200100000100000200000100100200000000000,
#GOGOSTART
100000200100100000200200100000200100100000200000,
100000200100100000200200100000200100100100200000,
100000200100100000200200100000200100100000200000,
100000200100100000200200100000200100100100200200,
100000200100100000200200100000200100100000200000,
100000200100100000200200100000200100100100200000,
100000200100100000200200100000200100100000200000,
100000200100100000200200100000200100100100200200,
100000200100100000200200100000200100100000200000,
100000200100100000200200100000200100100100200000,
100000200100100100200000100000200100100100200000,
100200000100200000200100000100200000200000100100,
#GOGOEND
200000000000100020002000000010002000200000002000,
100020002000100100202020200000002000100010001000,
200000001000200020001000100020002000100020001000,
200010001000200200101010100000000000100000002000,
100010002000200000000000200020001000100000000000,
100200100000200000202020100100200200100000100000,
200020001000100000002000100010002000200010002000,
100010002000200000101010200200100100200000200000,
300000000000000000100000200200200200200000100000,
400000000000000000000000300000000000000000000000,
#SCROLL 6
600000000000000000000000000000000008000000000000,
#SCROLL 1
#GOGOSTART
100000200100100000200200100000200100100000200000,
100000200100100000200200100000200100100100200000,
100000200100100000200200100000200100100000200000,
100000200100100000200200100000200100100100200200,
100000200100100000200200100000200100100000200000,
100000200100100000200200100000200100100100200000,
100000200100100100200200100100200100100100200200,
#GOGOEND
100000000000000000000000300000000000400000000000,
#GOGOSTART
100000200100100000200200100000200100100000200000,
100000200100100000200200100000200100100100200000,
100000200100100000200200100000200100100100200200,
100000200100100100200200100000200100100100200200,
100000200100100100200200100100200200100100200200,
100100200200100000200200100100200200100200100200,
100200000100200000100200000100200000100200100100,
200000200200100100200200100000200200100100200000,
#GOGOEND
300000200200100100200200100200100000300000400000,
000000200200100100200200100200100000300000400000,
000000200200100102020200100200100000300000400000,
#MEASURE 8/4
000000100200000100200000100200000100200000102020000000300000400000000000000000000000000000000000,
#END

COURSE:Hard
LEVEL:7
SCOREINIT:2110
SCOREDIFF:0
#START
300000200200200000200200200000200000300000400000,
000000200200200000200200200000200000300000400000,
000000200200200000200200200000200000300000400000,
000000100100000100100000100100000100100000200200,
200000000000000000000000300000400000000000100100,
100000100000200000000100100000100000200000000000,
100000100000200000000100100000100000200000000000,
100000100000200000000100100000100000200000200000,
100000100000200000200000100000100000200000100100,
100000100000200000000100100000100000200000000000,
100000100000200000000100100000100000200000000000,
100000100000200000000100100000100000200000200000,
100000100000200000200000100100100000200200200000,
100000000000000000200000200000100100100000100000,
000000100100100000100100100000100000100100100000,
100100100000100000200000100000200000100000100000,
200000200000400000000000100000100100100000100000,
100100000100100100000000100000100000100100000100,
100000000000000000000000100000200000000000100000,
200000100100100000100000100000100100100000100000,
100000100100100000100000200000100000200000000000,
#GOGOSTART
100000000100100000100000100000000100100000100000,
100000000100100000200000100000000100100000200000,
100000000100100000100000100000000100100000100000,
100000000100100000200000100000000100100000200000,
100000000100100000100000100000000100100000100000,
100000000100100000200000100000000100100000200000,
100000000100100000100000100000000100100000100000,
100000000100100000200000300000000000400000000000,
100000000100100000100000100000000100100000100000,
100000000100100000200000100000000100100000200000,
100000000100100000100000100000000100100000100000,
100100000100100000100100000100100000100000100000,
#GOGOEND
400000000000000000000000000000000000000000000000,
200000000000200200200200200000000000000000000000,
000000000000000000000000000000000000000000000000,
100000000000200200200200200000000000000000000000,
200000000200000000200000200000000200000000200000,
200000000000200200200200200000000000000000000000,
200000000200000000200000200000000200000000200000,
100000000000200200200200200000000000000000000000,
300000000000000000000000200200200200200000000000,
400000000000000000000000300000000000000000000000,
#SCROLL 6
600000000000000000000000000000000008000000000000,
#SCROLL 1
#GOGOSTART
100000000100100000100000100000000100100000100000,
100000000100100000200000100000000100100000200000,
100000000100100000100000100000000100100000100000,
100000000100100000200000100000000100100000200000,
100000000100100000100000100000000100100000100000,
100000000100100000200000100000000100100000200000,
100000100100100000100000100000100100100000100000,
#GOGOEND
100000000000000000000000300000000000400000000000,
#GOGOSTART
100000000100100000100000100000000100100000100000,
200000000200200000200000200000000200200000200000,
100000000100100000100000100000000100100000100000,
200000000200200000200000200000000200200000200000,
100000100100100000100000100000100100100000100000,
100000100100100000100000100000100100100000100000,
100000000100000000100000000100000000100000100000,
300000000000000000000000400000000000000000000000,
#GOGOEND
300000200200200000200200200000200000300000400000,
000000200200200000200200200000200000300000400000,
000000200200200000200200200000200000300000400000,
#MEASURE 8/4
000000100100000100100000100100000100100000200200000000300000400000000000000000000000000000000000,
#END

COURSE:Normal
LEVEL:5
BALLOON:9,10,7
SCOREINIT:3880
SCOREDIFF:0
#START
300000500000000000000000000008000000300000400000,
000000500000000000000000000008000000300000400000,
000000500000000000000000000008000000300000400000,
000000700000000000000000000000000000000000000000,
800000000000000000000000300000400000000000000000,
100000000000200000000000100000100000200000000000,
100000000000200000000000100000100000200000000000,
100000000000200000000000100000100000200000000000,
100000000000200000200000100000100000200000000000,
100000000000200000000000100000100000200000000000,
100000000000200000000000100000100000200000000000,
100000000000200000000000100000100000200000000000,
100000000000200000200000100000100000200000000000,
200000000000200000000000200000000000200000200000,
000000200000000000200000200000200000000000000000,
200000000000200000000000200000000000200000200000,
000000200000000000200000200000200000200000000000,
200000000000200000000000200000000000200000200000,
000000200000000000200000200000200000000000000000,
200000000000200000000000200000000000200000200000,
000000200000000000200000200000200000200000000000,
#GOGOSTART
100000000000100000100000200000000000100000000000,
100000000000100000100000100000000000200000000000,
100000000000100000100000200000000000100000000000,
100000000000100000100000100000000000200000000000,
100000000000100000100000200000000000100000000000,
100000000000100000100000100000000000200000000000,
100000000000100000100000200000000000100000000000,
100000000000100000100000300000000000400000000000,
100000000000100000100000200000000000100000000000,
100000000000100000100000100000000000200000000000,
100000000000100000000000100000000000100000000000,
500000000000000000000000000000000008000000000000,
#GOGOEND
400000000000000000000000000000000000000000000000,
200000000000200000200000200000000000000000000000,
000000000000000000000000000000000000000000000000,
100000000000200000200000200000000000000000000000,
200000000000000000200000200000000000200000000000,
200000000000200000200000200000000000000000000000,
200000000000000000200000200000000000200000000000,
100000000000200000200000200000000000000000000000,
300000000000000000000000200000200000200000000000,
400000000000000000000000300000000000000000000000,
#SCROLL 6
600000000000000000000000000000000008000000000000,
#SCROLL 1
#GOGOSTART
100000000000100000100000200000000000100000100000,
100000000000100000100000100000000000200000200000,
100000000000100000100000200000000000100000100000,
100000000000100000100000100000000000200000200000,
100000000000100000100000200000000000100000100000,
100000000000100000100000100000000000200000200000,
100000000000100000100000200000000000100000100000,
#GOGOEND
100000000000000000000000300000000000400000000000,
#GOGOSTART
100000000000100000100000200000000000100000200000,
100000000000100000200000100000000000200000200000,
100000000000100000100000200000000000100000200000,
100000000000100000100000300000000000900000000000,
100000000000000000000000000000800000000000000000,
000000000000000000000000000000000000000000000000,
100000000100000000100000000100000000100000000000,
300000000000000000000000400000000000000000000000,
#GOGOEND
300000500000000000000000000008000000300000400000,
000000500000000000000000000008000000300000400000,
000000500000000000000000000008000000300000400000,
#MEASURE 8/4
000000700000000000000000000000000000000000800000000000300000000000000000000000000000000000000000,
#END

COURSE:Easy
LEVEL:3
BALLOON:7,8,6
SCOREINIT:6350
SCOREDIFF:0
#START
300000000000000000000000000000000000300000400000,
000000000000000000000000000000000000300000400000,
000000000000000000000000000000000000300000400000,
000000700000000000000000000000000000000000800000,
000000000000000000000000300000000000000000000000,
100000000000200000000000100000000000200000000000,
100000000000200000000000100000000000000000000000,
100000000000200000000000100000000000200000000000,
100000000000200000000000100000000000000000000000,
100000000000200000000000100000000000200000000000,
100000000000200000000000100000000000000000000000,
100000000000200000000000100000000000200000000000,
100000000000200000000000100000000000000000000000,
200000000000000000000000200000000000000000000000,
200000000000000000000000000000000000000000000000,
200000000000000000000000200000000000000000000000,
200000000000000000000000000000000000000000000000,
200000000000200000000000200000000000000000000000,
200000000000000000000000000000000000000000000000,
200000000000200000000000200000000000000000000000,
200000000000000000000000000000000000000000000000,
#GOGOSTART
100000000000000000000000200000000000100000000000,
100000000000000000000000100000000000200000000000,
100000000000000000000000200000000000100000000000,
100000000000000000000000100000000000200000000000,
100000000000000000000000200000000000100000000000,
100000000000000000000000100000000000200000000000,
100000000000000000000000200000000000100000000000,
100000000000000000000000300000000000400000000000,
100000000000000000000000200000000000100000000000,
100000000000000000000000100000000000200000000000,
100000000000100000000000100000000000100000000000,
500000000000000000000000000080000000000000000000,
#GOGOEND
400000000000000000000000000000000000000000000000,
200000000000200000000000200000000000000000000000,
000000000000000000000000000000000000000000000000,
100000000000200000000000200000000000000000000000,
200000000000000000000000200000000000000000000000,
200000000000200000000000200000000000000000000000,
200000000000000000000000200000000000000000000000,
100000000000200000000000200000000000000000000000,
300000000000000000000000200000000000200000000000,
400000000000000000000000300000000000000000000000,
#SCROLL 6
600000000000000000000000000080000000000000000000,
#SCROLL 1
#GOGOSTART
100000000000000000000000200000000000100000000000,
100000000000000000000000100000000000200000000000,
100000000000000000000000200000000000100000000000,
100000000000000000000000100000000000200000000000,
100000000000000000000000200000000000100000000000,
100000000000000000000000100000000000200000000000,
100000000000000000000000200000000000100000000000,
#GOGOEND
100000000000000000000000300000000000400000000000,
#GOGOSTART
100000000000100000000000200000000000100000000000,
100000000000100000000000100000000000200000000000,
100000000000100000000000200000000000100000000000,
100000000000100000000000300000000000700000000000,
800000000000000000000000800000000000000000000000,
000000000000000000000000000000000000000000000000,
200000000000000000000000200000000000000000000000,
300000000000000000000000400000000000000000000000,
#GOGOEND
300000000000000000000000000000000000300000400000,
000000000000000000000000000000000000300000400000,
000000000000000000000000000000000000300000400000,
#MEASURE 8/4
000000700000000000000000000000000000000000800000000000300000000000000000000000000000000000000000,
#END
