//TJADB Project
TITLE:Kaikai Kitan -Cover Audio-
TITLEJA:廻廻奇譚
SUBTITLE:--Jujutsu Kaisen
SUBTITLEJA:カバー音源 TVアニメ『呪術廻戦』第1クールオープニングテーマ
BPM:185
WAVE:Kaikai Kitan (Cover).ogg
OFFSET:-2.381
DEMOSTART:48.260 //Shinuchi:
8870/4460/2800/1890

COURSE:Oni
LEVEL:8
BALLOON:23,7,7,7,21
SCOREINIT:600,2070
SCOREDIFF:160
#START
#GOGOSTART
3011104000203011,
#MEASURE 6/4
1040202030030030
#GOGOEND
00000000, //2
#GOGOSTART
#MEASURE 4/4
3000201110102010,
0010201122102010,
0010201110102010,
0010201110221120,
3000201110102010,
0010201122102010,
0010201110102010,
0020202222111022,
#GOGOEND
#MEASURE 6/4
700000000008, //11
#MEASURE 4/4
12121011,
02121102,
10110211,
02121110,
1020100011100020,
12110211,
2002102010001040,
0010200210300000, //19
3010200210100020,
1001201011100020,
0010202210100020,
0010200210201000,
1010202210100020,
1011201000101022,
1010201110201020,
0011202220102010, //27
0010201110102011,
2010201110102010,
0010201110102011,
2010202220101020,
00110022,
0000101120102010,
01121127,
000000000000080000100200100000100000200000
#GOGOSTART
300000, //35
0030201210102030,
0030201210102010,
0010201210102010,
0012102012212210,
0020221010120210,
0020201110102010,
0020201110112070,
000000000000080000200200200000100000200000300000, //43
0030201210102030,
0030201210102010,
0011200210012002,
1001201022112210,
0010102210102210,
1020001011201011,
2010112210112210,
0011221120102070, //51
000000000000080000200000100000100000200000100000,
0020001011112210,
00121021,
0110102220112000,
30140230,
0411412
#GOGOEND
7,
0,
8110110
#GOGOSTART
3, //59
0010201110102010,
0010201122102010,
0010201122112210,
00202022221110
#GOGOEND
40,
0,
0,
#MEASURE 12/4
0, //66
#END

COURSE:Hard
LEVEL:6
BALLOON:18,5,2,9,4,13
SCOREINIT:700,3210
SCOREDIFF:193
#START
#GOGOSTART
30230230,
#MEASURE 6/4
2030002030030030
#GOGOEND
00000000, //2
#MEASURE 4/4
#GOGOSTART
30201201,
01201201,
01201011,
01102220,
30201201,
01201201,
01201011,
01102220,
#GOGOEND
#MEASURE 6/4
700000000008, //11
#MEASURE 4/4
10101011,
10101011,
10101011,
10111110,
10101111,
10111110,
20222014,
02203300, //19
30201102,
10201102,
01201102,
01201120,
01201102,
10210110,
11011012,
02222011, //27
00000111,
20222011,
01100111,
20222202,
00110022,
00110111,
02202227,
000000000000080000000000000000000000000000
#GOGOSTART
300000, //35
03022223,
03022221,
01112222,
0010100040040040,
0010100040040040,
01112222,
01101117,
000000000000080000200000200000200000200000300000, //43
03022223,
03022221,
01212121,
21212127,
0,
00811011,
21121121,
01012127, //51
000000000000080000000000100000100000000000100000,
02021202,
00121021,
01022000,
30230230,
0222020
#GOGOEND
7,
00000008,
0110110
#GOGOSTART
3, //59
00201201,
01201201,
01202021,
0220221
#GOGOEND
4,
0,
0,
#MEASURE 12/4
0, //66
#END

COURSE:Normal
LEVEL:5
BALLOON:3,9,5,7,3,3,9,3
SCOREINIT:840,5220
SCOREDIFF:263
#START
#GOGOSTART
30030030,
#MEASURE 6/4
000000300000000000000000700000000000000000000008
#GOGOEND
000000000000000000000000, //2
#MEASURE 4/4
#GOGOSTART
30002001,
01002001,
01102001,
01102000,
30002001,
01002001,
01102001,
01102000,
#GOGOEND
#MEASURE 6/4
700008, //11
#MEASURE 4/4
11,
1110,
1110,
1111,
11,
1110,
10101004,
00001100, //19
30001101,
10001102,
00001107,
0008,
01101101,
10110110,
11011017,
00000008, //27
00000110,
20202011,
01000110,
2220,
1,
1,
01101117,
000000000000080000000000000000000000000000
#GOGOSTART
300000, //35
03002003,
03002001,
01102001,
01102002,
01102002,
01102002,
01101117,
000000000000080000000000000000000000000000300000, //43
03002003,
03002001,
01101110,
11101117,
0,
0800,
20202022,
01010101, //51
10001101,
00002202,
00111011,
02022000,
30030030,
0300700
#GOGOEND
8,
0,
0110110
#GOGOSTART
3, //59
00002001,
01002001,
01102001,
0110110
#GOGOEND
4,
0,
0,
#MEASURE 12/4
0, //66
#END

COURSE:Easy
LEVEL:4
BALLOON:12,8,5,6,2,9,8,12
SCOREINIT:1000,11030
SCOREDIFF:550
#START
#GOGOSTART
7,
#MEASURE 6/4
000000000000000000000000000000000000000000000008
#GOGOEND
000000000000000000000000, //2
#MEASURE 4/4
#GOGOSTART
30001001,
00001001,
00001001,
0,
30001001,
00001001,
00001001,
01,
#GOGOEND
#MEASURE 6/4
700008, //11
#MEASURE 4/4
11,
11,
11,
1,
11,
11,
10001005,
000000000000000000000000000008000000000000000000, //19
30001001,
00001001,
00001007,
0008,
10001001,
00001001,
00001007,
00000008, //27
0,
20002002,
0,
22,
1,
1,
5,
000000000008000000000000000000000000000000
#GOGOSTART
300000, //35
03000003,
03000003,
00001001,
00002002,
00002002,
00002002,
00001007,
000000000000080000000000000000000000000000300000, //43
03000003,
03000003,
01,
10101007,
0,
0800,
10101007,
0, //51
00801001,
00002002,
00101001,
03,
7,
0000000
#GOGOEND
8,
0,
0000000
#GOGOSTART
3, //59
00001001,
00002002,
00001001,
0000200
#GOGOEND
4,
0,
0,
#MEASURE 12/4
0, //66
#END
