//TJADB Project
TITLE:KING
TITLEJA:KING
SUBTITLE:--Kanaria feat. GUMI
SUBTITLEJA:Kanaria
BPM:166
WAVE:KING.ogg
OFFSET:-0.410
DEMOSTART:52.410

COURSE:Oni
LEVEL:8
BALLOON:4,4,4,4,20
SCOREINIT:1280
SCOREDIFF:0
#START
20222222,
2220222020000000,
1000102210201020,
1110102010002000,
1000102210201020,
1120112011102000,
1000102210201020,
1110102010002000,
1000102210201020,
1120112011102000,
1000102210102011,
11212010,
1011201010222011,
1020101111221020,
1000102210222011,
11212010,
1011201010222011,
1020102010222000,
1010201110112010,
1110101022020020,
1010201110112010,
1110101021021020,
1010201110112010,
1110101022020020,
1010201110112010,
2220222022202000,
1,
3330,
1000102010212022,
1110202210010010,
1000102010212022,
1110201120102010,
1000102010212022,
1110202210010010,
1000102010212010,
4444,
#GOGOSTART
1110222011202210,
1110202212102020,
70840404,
1011202220221220,
1110222011202210,
1110202212102020,
70840404,
1011100020002000,
#GOGOEND
1,
11112020,
3000102210201020,
1110102010002000,
1000102210201020,
1120112011102000,
1000102210201020,
1110102010002000,
1000102210201020,
1120112010002000,
1012101010121000,
1201201120202020,
1012101010121000,
2102102210221000,
1012101010121000,
1201201120202020,
1012101010121000,
2102102210221110,
1000102011011020,
1120102210010010,
1000102011011020,
1110101011221120,
1000102011011020,
1120102210010010,
1000102011011020,
4444,
#GOGOSTART
1110222011202210,
1110202212102020,
70840404,
1011202220221222,
1110222011202210,
1110202212102020,
70840404,
1011100022222220,
#GOGOEND
10222222,
11334040,
3000102210221020,
1121102010222022,
1000102210221020,
1120112022221110,
3000102210221020,
1121102010222022,
1000102210221020,
1111111022112211,
20120212,
10120212,
10120212,
7,
8,
#END

COURSE:Hard
LEVEL:6
BALLOON:3,3,3,3,16
SCOREINIT:1960
SCOREDIFF:0
#START
200000000000200000200000200000200000200000000000,
200000200000200000200000200000000000000000000000,
100000000000100000200000100000100000100000000000,
100000100000100000200000100000000000200000000000,
100000000000100000200000100000100000100000000000,
100000200000100000200000100000000000200000000000,
100000000000100000200000100000100000100000000000,
100000100000100000200000100000000000200000000000,
100000000000100000200000100000100000100000000000,
100000200000100000200000100000000000200000000000,
100000000000100000000000100000000000200000100000,
100000100000200000000000200000000000100000000000,
100000000000200000100000100000000000100000100000,
100000100000100000000000200000000000100000000000,
100000000000100000000000200000000000200000100000,
100000100000200000000000200000000000100000000000,
100000000000200000100000100000000000100000100000,
100000100000100000000000200000000000100000000000,
100000100000200000100000100000100000200000000000,
100000100000100000000000200000000200000000200000,
100000100000200000100000100000100000200000000000,
100000100000100000000000200000000200000000200000,
100000100000200000100000100000100000200000000000,
100000100000100000000000200000000200000000200000,
100000100000200000100000100000100000200000000000,
200000000000200000000000200000000000200000000000,
100000000000000000000000000000000000000000000000,
300000000000300000000000300000000000000000000000,
100000000000100000200000100000000000200000000000,
200000100000200000000000100000000100000000100000,
100000000000100000200000100000000000200000000000,
200000100000200000000000200000100000200000000000,
100000000000100000200000100000000000200000000000,
200000100000200000000000100000000100000000100000,
100000000000100000200000100000000000200000000000,
400000000000400000000000400000000000400000000000,
#GOGOSTART
100000100000100000000000200000200000200000000000,
100100100000000000100000100000100000200000200000,
700000000000800000400000000000400000000000400000,
000000100000100000100000200000000000200000000000,
100000100000100000000000200000200000200000000000,
100100100000000000100000100000100000200000200000,
700000000000800000400000000000400000000000400000,
000000100100100000000000200000000000200000000000,
#GOGOEND
300000000000000000000000000000000000000000000000,
100000100000100000100000200000000000200000000000,
300000000000100000200000100000100000100000000000,
100000100000100000200000100000000000200000000000,
100000000000100000200000100000100000100000000000,
100000200000100000200000100000000000200000000000,
100000000000100000200000100000100000100000000000,
100000100000100000200000100000000000200000000000,
100000000000100000200000100000100000100000000000,
100000200000100000200000100000000000200000000000,
100000100100100000000000100000100100100000000000,
200000000200000000200000200000200000200000000000,
100000100100100000000000100000100100100000000000,
200000000200000000200000200000000000200000000000,
100000100100100000000000100000100100100000000000,
200000000200000000200000200000200000200000000000,
100000100100100000000000100000100100100000000000,
200000000200000000200000100000100000100000100000,
100000000000100000000000100000000100000000100000,
100000200000100000200000100000000100000000100000,
100000000000100000000000100000000100000000100000,
100000100000100000100000100000200000100000200000,
100000000000100000000000100000000100000000100000,
100000200000100000200000100000000100000000100000,
100000000000100000000000100000000100000000100000,
400000000000400000000000400000000000400000000000,
#GOGOSTART
100000100000100000000000200000200000200000000000,
100100100000000000100000100000100000200000200000,
700000000000800000400000000000400000000000400000,
000000100000100000100000200000200000200000000000,
100000100000100000000000200000200000200000000000,
100100100000000000100000100000100000200000200000,
700000000000800000400000000000400000000000400000,
000000100000100000000000200000000000200000000000,
#GOGOEND
300000000000000000000000000000000000000000000000,
100000100000100000100000400000000000400000000000,
300000000000100000200000100000100000100000000000,
100000100000100000200000100000000000200000000000,
100000000000100000200000100000100000100000000000,
100000100000100000100000400000000000400000000000,
300000000000100000200000100000100000100000000000,
100000100000100000200000100000000000200000000000,
100000000000100000200000100000100000100000000000,
100000100000100000100000200000200000200000200000,
100000000000000000200000000000200000000000200000,
100000000000000000200000000000200000000000200000,
100000000000000000200000000000200000000000200000,
7,
8,
#END

COURSE:Normal
LEVEL:5
BALLOON:11
SCOREINIT:3620
SCOREDIFF:0
#START
200000000000000000000000000000000000000000000000,
200000200000200000000000200000000000000000000000,
100000000000000000000000100000000000000000000000,
100000100000100000000000100000000000200000000000,
100000000000000000000000100000000000000000000000,
100000100000100000000000100000000000000000000000,
100000000000000000000000100000000000000000000000,
100000100000100000000000100000000000200000000000,
100000000000000000000000100000000000000000000000,
100000100000100000000000100000000000000000000000,
100000000000000000000000000000000000000000000000,
100000000000000000000000200000000000000000000000,
100000000000000000000000000000000000000000000000,
100000000000100000000000100000000000000000000000,
100000000000000000000000000000000000000000000000,
100000000000000000000000200000000000000000000000,
100000000000000000000000000000000000000000000000,
100000000000100000000000100000000000000000000000,
100000000000000000000000100000000000000000000000,
100000000000200000000000200000000000000000000000,
100000000000000000000000100000000000000000000000,
100000000000200000000000200000000000000000000000,
100000000000000000000000100000000000000000000000,
100000000000200000000000200000000000000000000000,
100000000000000000000000100000000000000000000000,
200000000000200000000000200000000000200000000000,
100000000000000000000000000000000000000000000000,
300000000000300000000000300000000000000000000000,
100000000000000000000000100000000000000000000000,
200000000000200000000000200000000000000000000000,
100000000000000000000000100000000000000000000000,
200000000000200000000000200000000000000000000000,
100000000000000000000000100000000000000000000000,
200000000000200000000000200000000000000000000000,
100000000000000000000000100000000000000000000000,
400000000000400000000000400000000000400000000000,
#GOGOSTART
100000000000100000000000200000000000200000000000,
100000100000000000100000100000000000100000000000,
100000000000000000400000000000400000000000400000,
000000000000000000000000200000000000200000000000,
100000000000100000000000200000000000200000000000,
100000100000000000100000100000000000100000000000,
100000000000000000400000000000400000000000400000,
000000000000000000000000200000000000200000000000,
#GOGOEND
300000000000000000000000000000000000000000000000,
100000100000100000100000200000000000200000000000,
300000000000000000000000100000000000000000000000,
100000100000100000000000100000000000200000000000,
100000000000000000000000100000000000000000000000,
100000100000100000000000100000000000000000000000,
100000000000000000000000100000000000000000000000,
100000100000100000000000100000000000200000000000,
100000000000000000000000100000000000000000000000,
100000100000100000000000100000000000000000000000,
100000000000000000000000100000000000000000000000,
200000000000200000000000200000000000200000000000,
100000000000000000000000100000000000000000000000,
200000000000200000000000200000000000000000000000,
100000000000000000000000100000000000000000000000,
200000000000200000000000200000000000200000000000,
100000000000000000000000100000000000000000000000,
200000000000200000000000200000000000000000000000,
100000000000100000000000100000000000000000000000,
100000200000100000200000100000000000000000000000,
100000000000100000000000100000000000000000000000,
100000100000100000100000100000000000000000000000,
100000000000100000000000100000000000000000000000,
100000200000100000200000100000000000000000000000,
100000000000100000000000100000000000000000000000,
400000000000400000000000400000000000400000000000,
#GOGOSTART
100000000000100000000000200000000000200000000000,
100000100000000000100000100000000000100000000000,
100000000000000000400000000000400000000000400000,
000000000000000000000000200000200000200000000000,
100000000000100000000000200000000000200000000000,
100000100000000000100000100000000000100000000000,
100000000000000000400000000000400000000000400000,
000000000000000000000000200000000000200000000000,
#GOGOEND
300000000000000000000000000000000000000000000000,
100000100000100000100000400000000000400000000000,
300000000000000000000000100000000000000000000000,
100000100000100000000000100000000000200000000000,
100000000000000000000000100000000000000000000000,
100000100000100000000000400000000000400000000000,
300000000000000000000000100000000000000000000000,
100000100000100000000000100000000000200000000000,
100000000000000000000000100000000000000000000000,
100000100000100000000000200000000000200000000000,
100000000000000000000000000000000000000000000000,
100000000000000000000000000000000000000000000000,
100000000000000000000000000000000000000000000000,
7,
8,
#END

COURSE:Easy
LEVEL:2
BALLOON:8,8,8,8,9
SCOREINIT:6780
SCOREDIFF:0
#START
200000000000000000000000000000000000000000000000,
200000000000200000000000200000000000000000000000,
100000000000000000000000000000000000000000000000,
100000000000000000000000100000000000000000000000,
100000000000000000000000000000000000000000000000,
100000000000000000000000100000000000000000000000,
100000000000000000000000000000000000000000000000,
100000000000000000000000100000000000000000000000,
100000000000000000000000000000000000000000000000,
100000000000000000000000100000000000000000000000,
100000000000000000000000000000000000000000000000,
100000000000000000000000000000000000000000000000,
100000000000000000000000000000000000000000000000,
100000000000000000000000100000000000000000000000,
100000000000000000000000000000000000000000000000,
100000000000000000000000000000000000000000000000,
100000000000000000000000000000000000000000000000,
100000000000000000000000100000000000000000000000,
100000000000000000000000000000000000000000000000,
100000000000000000000000200000000000000000000000,
100000000000000000000000000000000000000000000000,
100000000000000000000000200000000000000000000000,
100000000000000000000000000000000000000000000000,
100000000000000000000000200000000000000000000000,
100000000000000000000000000000000000000000000000,
200000000000200000000000200000000000000000000000,
100000000000000000000000000000000000000000000000,
300000000000300000000000300000000000000000000000,
100000000000000000000000000000000000000000000000,
200000000000000000000000200000000000000000000000,
100000000000000000000000000000000000000000000000,
200000000000000000000000200000000000000000000000,
100000000000000000000000000000000000000000000000,
200000000000000000000000200000000000000000000000,
100000000000000000000000000000000000000000000000,
400000000000000000000000400000000000000000000000,
#GOGOSTART
100000000000000000000000200000000000000000000000,
100000000000000000000000100000000000100000000000,
700000000000000000000000000000000000000000000000,
800000000000000000000000200000000000000000000000,
100000000000000000000000200000000000000000000000,
100000000000000000000000100000000000100000000000,
700000000000000000000000000000000000000000000000,
800000000000000000000000200000000000200000000000,
#GOGOEND
300000000000000000000000000000000000000000000000,
000000000000000000000000200000000000200000000000,
300000000000000000000000000000000000000000000000,
100000000000000000000000100000000000000000000000,
100000000000000000000000000000000000000000000000,
100000000000000000000000100000000000000000000000,
100000000000000000000000000000000000000000000000,
100000000000000000000000100000000000000000000000,
100000000000000000000000000000000000000000000000,
100000000000000000000000100000000000000000000000,
100000000000000000000000000000000000000000000000,
200000000000000000000000200000000000000000000000,
100000000000000000000000000000000000000000000000,
200000000000000000000000200000000000000000000000,
100000000000000000000000000000000000000000000000,
200000000000000000000000200000000000000000000000,
100000000000000000000000000000000000000000000000,
200000000000000000000000200000000000000000000000,
100000000000000000000000100000000000000000000000,
100000000000100000000000100000000000000000000000,
100000000000000000000000100000000000000000000000,
100000000000100000000000100000000000000000000000,
100000000000000000000000100000000000000000000000,
100000000000100000000000100000000000000000000000,
100000000000000000000000100000000000000000000000,
400000000000000000000000400000000000000000000000,
#GOGOSTART
100000000000000000000000200000000000000000000000,
100000000000000000000000100000000000100000000000,
700000000000000000000000000000000000000000000000,
800000000000000000000000200000000000000000000000,
100000000000000000000000200000000000000000000000,
100000000000000000000000100000000000100000000000,
700000000000000000000000000000000000000000000000,
800000000000000000000000200000000000200000000000,
#GOGOEND
300000000000000000000000000000000000000000000000,
000000000000000000000000400000000000400000000000,
300000000000000000000000000000000000000000000000,
100000000000000000000000100000000000000000000000,
100000000000000000000000000000000000000000000000,
100000000000000000000000400000000000400000000000,
300000000000000000000000000000000000000000000000,
100000000000000000000000100000000000000000000000,
100000000000000000000000000000000000000000000000,
100000000000000000000000200000000000200000000000,
100000000000000000000000000000000000000000000000,
100000000000000000000000000000000000000000000000,
100000000000000000000000000000000000000000000000,
7,
8,
#END
