//TJADB Project
TITLE:Hadaka no Kokoro
TITLEJA:裸の心
SUBTITLE:--Aimyon & Tomi Yo
SUBTITLEJA:TBS系 火曜ドラマ「私の家政夫ナギサさん」主題歌
BPM:74
WAVE:Hadaka no Kokoro.ogg
OFFSET:-5.789
DEMOSTART:72.275

COURSE:Oni
LEVEL:7
SCOREINIT:1590
SCOREDIFF:565
#START
1100200110000000,
1100201010001120,
1012,
500000000000000000000000000000000000000008000000,
1010111020000002,
1000201120000000,
1010201110000001,
1001110120002000,
1010111020000002,
1000201120002000,
1010201110000001,
1200101210002020,
#MEASURE 2/4
0220,
#MEASURE 4/4
1020101100102011,
11210021,
1020102100102010,
1010201011102000,
12111212,
1010201000002211,
500000000000000000000008000000300000000000400000,
600000000000000000000000000000000008000000000000,
#GOGOSTART
1110201110102001,
100000200000100010002000100000100200100010002000,
100000100200100010002000100000100000200000000100,
1020110030304000,
1110201110102001,
100000200000100010002000100000100200100100000200,
1110200030004010,
500000000000000000000000000000000000000008000000,
#GOGOEND
#END

COURSE:Hard
LEVEL:5
SCOREINIT:7120
SCOREDIFF:
#START
1210,
10221020,
1012,
500000000000000000000000000000000000000008000000,
1010111020000000,
10221000,
11211000,
10112000,
1010111020000000,
10221000,
11211000,
12111022,
#MEASURE 2/4
0220,
#MEASURE 4/4
1000101100102000,
10210020,
1000101100102000,
1010201011102000,
10211021,
11210012,
500000000000000000000008000000300000000000400000,
600000000000000000000000000000000008000000000000,
#GOGOSTART
1010201110002000,
100100200000100000101020,
100112100200,
1010110030304000,
1010201110002000,
1010200010002201,
1110200030004000,
500000000000000000000000000000000000000008000000,
#GOGOEND
#END

COURSE:Normal
LEVEL:2
SCOREINIT:11820
SCOREDIFF:
#START
1010,
1012,
1011,
500000000000000000000000000000000000000008000000,
1120,
1210,
1210,
1110,
1120,
1210,
1210,
1110,
#MEASURE 2/4
00,
#MEASURE 4/4
1102,
1002,
1102,
1012,
1111,
10010020,
600000000000000008000000000000300000000000300000,
600000000000000000000000000000000008000000000000,
#GOGOSTART
10111020,
11101020,
1212,
11103000,
10111020,
11101020,
1234,
500000000000000000000000000000000000000008000000,
#GOGOEND
#END

COURSE:Easy
LEVEL:1
SCOREINIT:17750
SCOREDIFF:
#START
1,
1010,
1010,
500000000000000000000000000008000000000000000000,
1020,
1010,
1010,
1110,
1020,
1010,
1010,
1110,
#MEASURE 2/4
00,
#MEASURE 4/4
1101,
1,
1101,
1010,
1110,
10010000,
600000000000000000000000000008000000000000000000,
600000000000000000000000000008000000000000000000,
#GOGOSTART
1110,
1110,
1020,
1130,
1110,
1110,
1040,
500000000000000000000000000000000000000008000000,
#GOGOEND
#END
