//TJADB Project
TITLE:Zenryoku Zenkai! Zenkaiger
TITLEJA:全力全開!ゼンカイジャー
SUBTITLE:--Kikai Sentai Zenkaiger
SUBTITLEJA:「機界戦隊ゼンカイジャー」より
BPM:176
WAVE:Zenryoku Zenkai! Zenkaiger.ogg
OFFSET:-2.339
DEMOSTART:44.587 //shinuchi:
15350/8190/4210/3240

COURSE:Oni
LEVEL:6
BALLOON:6,12,12,10,14
SCOREINIT:980,3940
SCOREDIFF:283
#START
0,
#GOGOSTART
5,
000000000000000000000000000000000008000000000000,
500000000000000000000000000000000008000000000000,
700000000000000000000008000000000000000000000000,
33033044,
0334, //7
#GOGOEND
11221020,
11211121,
01211121,
0010201000222000,
11221020,
11221125,
000000000000000000000000000000000008000000000000,
700000000000000000000000000000000000000008000000, //15
1010222010102020,
10201121,
0010222010102010,
0010200010222000,
30110203,
02211126,
0,
000008000000000000000000100000100000200000200000, //23
11010000,
11021112,
34,
4411,
1011101020201010,
1010201000112000,
1011101010200070,
000000000000000000000000000000000000800000000000,
1112, //32
#GOGOSTART
30303043,
3000003000112020,
1000100010222010,
1010201000112000,
1000111020002220,
1000111020102010,
5,
000000000000000008000000000000100000100000200000, //40
30303043,
3000003000111000,
1000111020002220,
1000201000112000,
1010202010112010,
0010102010112000,
1010201110222070,
000000000000000000000000000008000000100000200000, //48
30340303,
00303406,
000000000000000000000000000008000000000000000000,
30343037,
000000000000000000000000000000000000000008000000,
11110040,
#GOGOEND
0,
0,
0,
0, //58
#END

COURSE:Hard
LEVEL:4
BALLOON:6,7,12,8,12
SCOREINIT:930,5390
SCOREDIFF:295
#START
0,
#GOGOSTART
5,
000000000000000000000000000000000008000000000000,
500000000000000000000000000000000008000000000000,
700000000000000000000008000000000000000000000000,
33033044,
0334, //7
#GOGOEND
1112,
10201111,
0202,
0000200000222000,
1112,
10201115,
000000000000000000000000000000000008000000000000,
700000000000000000000000000008000000000000000000, //15
10201110,
10201111,
0202,
0000200000222000,
30110103,
01111226,
0,
000008000000000000000000100000100000100000000000, //23
11020000,
11022010,
34,
4411,
11101122,
11110220,
11221107,
0,
8, //32
#GOGOSTART
30303033,
30030011,
10101022,
11110220,
1121,
10221122,
5,
000000000000000008000000000000100000100000100000, //40
30303033,
30030010,
1122,
10110220,
1010202010001110,
01111020,
11221107,
000000000000000000000000000008000000100000100000, //48
30330403,
00303306,
000000000000000000000000000008000000000000000000,
30333039,
000000000000000009000000,
8,
#GOGOEND
0,
0,
0,
0, //58
#END

COURSE:Normal
LEVEL:2
BALLOON:4,5,9,6,9
SCOREINIT:1150,11240
SCOREDIFF:725
#START
0,
#GOGOSTART
5,
000000000000000000000000000000000008000000000000,
500000000000000000000000000000000008000000000000,
700000000000000000000008000000000000000000000000,
30030030,
03, //7
#GOGOEND
11,
1011,
0202,
0202,
11,
10001005,
000000000000000000000000000000000008000000000000,
700000000000000000000000000008000000000000000000, //15
11,
1011,
0202,
0202,
30000103,
00001006,
0,
000008000000000000000000000000000000000000000000, //23
1,
11,
34,
4011,
11,
10010000,
10001007,
0,
8, //32
#GOGOSTART
3334,
30030000,
1112,
10010000,
1011,
1011,
5,
000000000000000008000000000000000000000000000000, //40
3334,
30030000,
1112,
10010000,
10001001,
01,
10101007,
000000000000000000000000000008000000000000000000, //48
30030003,
00003006,
000000000000000000000000000008000000000000000000,
30303009,
000000000000000009000000,
8,
#GOGOEND
0,
0,
0,
0, //58
#END

COURSE:Easy
LEVEL:2
BALLOON:3,4,8,5,7
SCOREINIT:1530,22030
SCOREDIFF:1875
#START
0,
#GOGOSTART
5,
000000000000000000000000000000000008000000000000,
500000000000000000000000000000000008000000000000,
700000000000000000000008000000000000000000000000,
3003,
03, //7
#GOGOEND
1,
1,
0200,
0200,
1,
10000005,
000000000000000000000000000000000008000000000000,
700000000000000000000000000008000000000000000000, //15
1,
1,
0200,
0200,
30000003,
00000006,
0,
000008000000000000000000000000000000000000000000, //23
1,
0,
3,
01,
1,
1,
10001007,
0,
8, //32
#GOGOSTART
3330,
3,
11,
1,
1,
1,
5,
000000000000000008000000000000000000000000000000, //40
3330,
3,
11,
1,
10000001,
0,
10001007,
000000000000000000000000000008000000000000000000, //48
30000003,
00000006,
000000000000000000000000000008000000000000000000,
30000009,
000000000000000009000000,
8,
#GOGOEND
0,
0,
0,
0, //58
#END
