//TJADB Project
TITLE:Don-chan Ondo
TITLEJA:どんちゃん音頭
SUBTITLE:--Yuri Misumi
BPM:120
WAVE:Don-chan Ondo.ogg
OFFSET:-2.347
DEMOSTART:16.346

COURSE:Oni
LEVEL:7
BALLOON:16
SCOREINIT:600
SCOREDIFF:140
#START
100000001000200000002000100000001000200000002000,
100000001010200000002000200000002000100000002000,
200010002000100020001000200000000000100010001000,
#GOGOSTART
100000002020200000002000100000001010200000002000,
100000002000100000002000100000002000400000000000,
100000001010200000002000100000002020200000002000,
100000001010200000002000100000002020200000000000,
#GOGOEND
100000000000100000000000100000000000200000002000,
100000001000100000001000100000002020200000002000,
100000000000100000000000100000000000200000002000,
100000001000100000001000400000000000400000000000,
100000002020200000001010100000002020200000002000,
100000001010200000001000100000002020200000002000,
100000001010200000002020100000001010200000002000,
100000001000200000002000100000000000400000000000,
100010101000200020002000100010102000200020002000,
100020002000100020002000100010101000200000000000,
#GOGOSTART
100000002020100000002020100000001010200000002000,
100000001010200000002020100000001010200000002000,
100000002020100000002020100000001010200000002000,
100000001010200000002020100010001010200000002000,
100000002020100000002020100010001000100000002000,
100000002020100000002020100000001010100000001000,
100000001010200000002020100000001010200000002000,
100000001010200000002020100000002020200000000000,
#GOGOEND
100000000000100000000000100000000000200000002000,
100000000000100000000000100000000000200000002000,
100000000000100000000000100000000000200000002000,
100020002000100020002000100020202000100020202000,
300000000000200000000000300000003000000000002000,
100000001000000000001000100000000000400000000000,
300000000000200000000000300000003000000000002000,
100000001000000000001000100000002020200000002000,
100000000000400000000000100000002020200000002000,
100020202000100010002000100000000000200000002000,
100000000000400000000000100000001020200000002000,
100000000000700000000000000000000000800000000000,
100000000000100000000000100000001000200000002000,
100010001000100000001000100000002020200000002000,
100000000000100000001000100000001000200000002000,
100000001000100000002000100100100100200000200000,
#GOGOSTART
100000002020100000002020100010001000200000002000,
100000001010200000002020100000002020200000002000,
100000002020100000002020100000001010200000002000,
100000001010200000002020100010001010200000002000,
100000002020100000002020100000002020100000002020,
100000002020100000002020100000002020100000002000,
100000001010200000002020100000001010200000002000,
100000001010200000002020100000000000100010001000,
100000002020200000002000100000001010200000002000,
100000002000100000002000100000002000400000000000,
100010102000200010002000100020002020200010002000,
300000000000300000000000300000000000000000000000,
#GOGOEND
#END

COURSE:Hard
LEVEL:6
BALLOON:12
SCOREINIT:600
SCOREDIFF:175
#START
100000002000100000002000100000002000100000002000,
100000000000000000000000000000000000000000000000,
200000002000200000002000200000000000100010001000,
#GOGOSTART
100000002020200000002000100000002020200000002000,
100000002000100000002000100000002000400000000000,
300000000000400000000000300000000000400000000000,
300000000000300000000000300000002020200000000000,
#GOGOEND
100000000000100000000000100000000000200000002000,
100000001000100000001000100000002020200000002000,
100000000000100000000000100000000000200000002000,
100000001000100000001000400000000000400000000000,
100000000000200000000000100000002020200000002000,
100000001000000000001000100000002020200000002000,
100000001000100000001000200000002000200000002000,
100000001000200000002000100000000000400000000000,
100000000000200000000000100000000000200000000000,
100000002000100000002000100010001000200000002000,
#GOGOSTART
100000000000100000000000100000002020200000002000,
100000001000100000001000100000002020200000002000,
100000001000100000001000100000001000200000002000,
100000001000100000001000100000001000200000000000,
100000000000100000000000100010001000100000002000,
100000000000100000001000100000002020200000002000,
100000001000100000001000100000001000200000002000,
100000001000100000001000100000002020200000000000,
#GOGOEND
100000000000100000000000100000000000200000002000,
100000000000100000000000100000000000200000002000,
100000000000100000000000100000000000200000002000,
100000002000100000002000100000000000200000000000,
300000000000200000000000300000003000000000000000,
100000001000000000001000100000000000300000000000,
300000000000200000000000300000003000000000000000,
100000001000000000001000100000000000200000002000,
100000000000400000000000100000002020200000002000,
100000001000000000001000100000000000200000002000,
100000000000200000000000100000002020200000002000,
100000000000700000000000000000000080000000000000,
100000000000100000000000100000000000200000002000,
100010001000100000001000100000002020200000002000,
100000000000100000001000100000001000200000002000,
100000001000100000001000100000000000000000000000,
#GOGOSTART
100000000000100000000000100010001000100000002000,
100000001000100000002000100000002020200000002000,
100000002000100000002000100000000000200000002000,
300000000000300000000000300000002000200000000000,
100000002000100000002000100000002000100000002000,
100000002000100000002000100000002000100000000000,
100000002000100000002000100000001010100000002000,
100000001000200000002000100000000000100010001000,
100000002020200000002000100000002020200000002000,
100000002000100000002000100000002000400000000000,
300000000000400000000000300000000000400000000000,
300000000000300000000000
#GOGOEND
300000000000000000000000,
#END

COURSE:Normal
LEVEL:3
SCOREINIT:950
SCOREDIFF:390
#START
100000000000100000000000100000000000100000000000,
000000000000000000000000000000000000000000000000,
100000000000100000000000100000000000100000000000,
#GOGOSTART
100000000000000000000000000000000000000000000000,
100000000000000000000000000000000000000000000000,
100000000000000000000000100000000000000000000000,
100000000000100000000000100000000000000000000000,
#GOGOEND
100000000000100000000000100000000000000000000000,
100000001000000000001000100000000000000000000000,
100000000000100000000000100000000000000000000000,
100000001000000000001000100000000000000000000000,
100000000000100000000000100000000000000000000000,
100000001000000000001000100000000000000000000000,
100000000000100000000000100000000000000000000000,
100000001000000000001000100000000000000000000000,
100000000000100000000000100000000000000000000000,
100000000000100000000000100000000000000000000000,
100000000000100000000000100000000000200000000000,
100000000000100000000000100000000000000000000000,
100000001000000000001000100000000000200000000000,
100000001000000000001000100000000000000000000000,
#GOGOSTART
100000000000100000000000100000000000200000000000,
100000000000100000000000100000000000000000000000,
100000001000000000001000100000000000200000000000,
100000001000000000001000100000000000000000000000,
#GOGOEND
100000000000000000000000000000000000000000000000,
100000000000000000000000000000000000000000000000,
100000000000000000000000000000000000000000000000,
100000000000000000000000000000000000000000000000,
100000000000000000000000100000000000000000000000,
100000001000000000001000100000000000000000000000,
100000000000000000000000100000000000000000000000,
100000001000000000001000100000000000000000000000,
100000000000200000000000100000000000200000000000,
100000001000000000001000100000000000000000000000,
100000000000200000000000100000000000200000000000,
100000001000000000001000100000000000000000000000,
100000000000100000000000100000000000200000000000,
100000001000000000001000100000000000000000000000,
100000000000100000000000100000000000200000000000,
100000001000000000001000100000000000000000000000,
#GOGOSTART
100000000000100000000000100000000000200000000000,
100000000000100000000000100000000000000000000000,
100000001000000000001000100000000000200000000000,
100000001000000000001000100000000000000000000000,
100000000000100000000000100000000000200000000000,
100000000000100000000000100000000000000000000000,
100000001000000000001000100000000000200000000000,
100000001000000000001000100000000000000000000000,
#GOGOEND
#END

COURSE:Easy
LEVEL:2
SCOREINIT:900
SCOREDIFF:530
#START
100000000000000000000000100000000000000000000000,
000000000000000000000000000000000000000000000000,
100000000000000000000000100000000000000000000000,
#GOGOSTART
100000000000000000000000000000000000000000000000,
100000000000000000000000000000000000000000000000,
100000000000000000000000100000000000000000000000,
100000000000100000000000100000000000000000000000,
#GOGOEND
100000000000000000000000100000000000000000000000,
100000000000100000000000100000000000000000000000,
100000000000000000000000100000000000000000000000,
100000000000100000000000100000000000000000000000,
100000000000000000000000100000000000000000000000,
100000000000100000000000100000000000000000000000,
100000000000000000000000100000000000000000000000,
100000000000100000000000100000000000000000000000,
100000000000100000000000100000000000000000000000,
100000000000100000000000100000000000000000000000,
#GOGOSTART
100000000000000000000000200000000000000000000000,
100000000000000000000000200000000000000000000000,
100000000000100000000000100000000000000000000000,
100000000000100000000000100000000000000000000000,
100000000000000000000000200000000000000000000000,
100000000000000000000000200000000000000000000000,
100000000000100000000000100000000000000000000000,
100000000000100000000000100000000000000000000000,
#GOGOEND
000000000000000000000000000000000000000000000000,
200000000000000000000000000000000000000000000000,
200000000000000000000000000000000000000000000000,
200000000000000000000000000000000000000000000000,
100000000000000000000000100000000000000000000000,
100000000000100000000000100000000000000000000000,
200000000000000000000000200000000000000000000000,
200000000000200000000000200000000000000000000000,
100000000000000000000000200000000000000000000000,
100000000000100000000000100000000000000000000000,
100000000000000000000000200000000000000000000000,
200000000000200000000000200000000000000000000000,
100000000000000000000000100000000000000000000000,
100000000000100000000000100000000000000000000000,
100000000000000000000000100000000000000000000000,
100000000000100000000000100000000000000000000000,
#GOGOSTART
100000000000000000000000100000000000000000000000,
100000000000100000000000100000000000000000000000,
100000000000000000000000100000000000000000000000,
100000000000100000000000100000000000000000000000,
100000000000000000000000200000000000000000000000,
100000000000000000000000200000000000000000000000,
100000000000100000000000100000000000000000000000,
100000000000100000000000100000000000000000000000,
#GOGOEND
#END
