//TJADB Project
TITLE:Donder Time
TITLEJA:Donder Time
SUBTITLE:--Masako Oogami feat. Kotoko Nomiya
SUBTITLEJA:太鼓 de タイムトラベル80's / おおがみまさこ feat.団地ノ宮琴子
BPM:120
WAVE:Donder Time.ogg
OFFSET:-2.135
DEMOSTART:86.634

COURSE:Oni
LEVEL:8
SCOREINIT:600
SCOREDIFF:150
#START
#BARLINEOFF
#MEASURE 2/4
202020202020100100000
#GOGOSTART
100,
#BARLINEON
#MEASURE 4/4
000000000000100000100000100000000000200000100100,
000000000000200000100000100000100100200100000200,
000000200000200000100000100000000000100000200100,
000000000000100200200100100000000200200000200000,
100100200200100100200200100200200000200100000100,
#GOGOEND
000000000000200000100000100000000000100000200100,
000000000000200000100000100000000000100000000100,
000000000000200000100000100000000000100000200200,
000100100000200000100000100000000000200100000100,
000000100000200000200000100000000000100000200100,
000000000000200000200000100000100000100100000200,
000000100000100000200200100000100000200000100100,
100000200000100000200200100100200000200200100100,
100000000000200000100100100000000000100000200100,
000000000000200000100100100000200000200100000000,
100000000000200000100100100000000000200000100100,
000000000000200000100100200200100000200100000000,
100000000000200000100100100000000000100000100100,
200200200000100200200200100000000000200000100100,
200000000000000000200200100000000000400000000000,
100100200200100100200200101010202020000100000
#GOGOSTART
500,
000000000000000000000000000000000000000000000008,
000000000000100100100000300000000000400000000500,
000000000000000000000000000000000000000000000008,
000000000000100000100100000000200000200000200000,
000200100000200000100000200000100000100000100000,
000200100000100000200000100000200000200000100000,
000200100000100000100000100000400000400000400000,
000200100000100000000200200200000200200100100000,
#GOGOEND
100000000000200000200000200000000000200000100100,
000000000000200000200200200000200000200000000000,
200000000200000000200200200200200000100000100000,
000000200000200000100000100000000200000000100000,
000000000000200000100000100000000000100000100100,
200200100100200200100200100100200200100200000
#GOGOSTART
300,
000000000000200000200200000000000000200000100100,
000000000000200000200000200000000000300000000300,
000000000000200000200200000000000000200000100100,
000000000000101020201010201020102010100000300000,
#GOGOEND
000000300000000000400000300000000000300000400000,
000000300000400000300000200000000000200000300000,
000000300000300000300000200200200200100000200
#GOGOSTART
100,
000100100000200000200200100100100000200200100200,
000200100100200200100100200100100100200200000400,
000200100200200000200200100100200000200100200200,
000100100000200000200000100000100200100000100000,
#GOGOEND
000200100000200000100000100000200000200000100000,
000200100000100000100000200000100000200000000000,
100000000200000000200000000000202020100000
#GOGOSTART
100000,
000100100100200100100100200200100100200000100000,
000200100100200200100100202020102010200000100000,
000100200100100100200200101020201010201020101020,
100000202020200000000100100200100100000400000300,
#GOGOEND
#END

COURSE:Hard
LEVEL:6
SCOREINIT:730
SCOREDIFF:215
#START
#BARLINEOFF
#MEASURE 2/4
200000200200000100000
#GOGOSTART
100,
#BARLINEON
#MEASURE 4/4
000000000000100000100000100000000000200000000200,
000000000000100000100000100000100100000200000100,
000000000000100000100000100000000000100000000100,
000000000000000100100000100000000200200000200000,
100100100000200200200000100100100000000100000100,
#GOGOEND
000000000000200000100000100000000000100000000100,
000000000000200000100000100000000000100000000100,
000000000000200000100000100000000000100000000100,
000000000000200000100000100000000000100100000200,
000000000000200000100000100000000000200000000100,
000000000000200000200000100000100000100100000200,
000000100000100000100100000000100000200000100000,
100000000000100000000000100000100000200200200000,
100000000000200000000000100000000000100000100100,
000000000000200000100000100000100000100100000000,
100000000000200000000000100000000000100000100100,
000000000000200000100000100100100000200200000000,
100000000000200000000000100000000000100000000000,
100100100000200000100000100000000000200000100100,
100000000000000000200200200000000000400000000000,
100100100000200200200000100000100100000000000
#GOGOSTART
500,
000000000000000000000000000000000000000000000008,
000000000000300000300000300000000000400000000500,
000000000000000000000000000000000000000000000008,
000000000000300000000300000000000000000000200000,
000000100000000000100000200000000000100000100000,
000000100000100000100000100100100000200000100000,
000000000000000000000000000000400000400000400000,
000000000000100000000000100100000200200000200000,
#GOGOEND
100000000000200000200000200000000000200000100100,
000000000000000000200200200000200000000000000000,
200000000200000000200000000000000000100000100000,
000000200000200000100000100000000100000000100000,
000000000000200000200000200000000000200000100000,
100100100000200200200000100100100000200200000
#GOGOSTART
300,
000000000000200000200200000000000000200000100100,
000000000000200000200000200000000000300000000300,
000000000000200000200200000000000000200000100100,
000000000000500000000000000000000008000000100000,
#GOGOEND
000000100000000000200000100000000000100000100000,
000000100000100000000000200000000000200000100000,
000000100000100000100000200200200000200000000
#GOGOSTART
500,
000000000000000000000000000000000000000000000008,
000000000000300000300000300000000000300000000500,
000000000000000000000000000000000000000000000008,
000000100000200000200000100100100000100000100000,
#GOGOEND
000000100000200000100000000000200000200000100000,
000000200000100000000000100000200000100000000000,
200000000200000000200000000000200200200000
#GOGOSTART
100000,
000100100000100100100000100000100100100000200000,
000200200000100100100000200000200200200000100000,
000100100000200200200000100000200000100100100000,
100000000000400000000000200000200200000400000300,
#GOGOEND
#END

COURSE:Normal
LEVEL:6
SCOREINIT:6400
SCOREDIFF:0
#START
#MEASURE 2/4
#BARLINEOFF
000000000000000100000
#GOGOSTART
100,
#MEASURE 4/4
#BARLINEON
000000000000000000000000100000000000100000000100,
000000000000000000000000000000000000000100000100,
000000000000000000000000200000000000200000000200,
000000000000000000000000100000000000000000000000,
100000000000100000000000100000100000000100000100,
#GOGOEND
000000000000000000000000100000000000100000000100,
000000000000000000000000100000000000100000000100,
000000000000000000000000000000000000100000000100,
000000000000000000000000000000000000000200000200,
000000000000000000000000100000000000100000000100,
000000000000100000000000100000000000000000000200,
000000200000200000000000000000000000000000100000,
100000000000100000000000100000100000000000000000,
100000000000100000000000100000000000000000000100,
000000000000000000000000000000000000000000000000,
200000000000200000000000200000000000000000000100,
000000000000000000000000200000200000200000000000,
100000000000000000000000100000000000100000000000,
100000000000000000000000200000000000000000000000,
200000000000000000000000000000000000000000000000,
100000000000100000000000100000100000000000000
#GOGOSTART
500,
000000000000000000000000000000000000000000000080,
000000000000100000000000100000000000000000000500,
000000000000000000000000000000000000000000000080,
000000000000100000000100000000000000000000100000,
000000100000000000200000200000000000000000100000,
000000100000100000100000100000000000000000100000,
000000000000000000000000000000000000000000400000,
000000000000000000000000000000000000000000000000,
#GOGOEND
300000000000200000000000000000000000200000000000,
000000000000200000000000000000000000200000000000,
200000000200000000200000000000000000000000100000,
000000200000200000000000100000000100000000100000,
000000000000100000100000100000000000100000000000,
500000000000000000000000000000000080000000000
#GOGOSTART
300,
000000000000000000000000000000000000000000100100,
000000000000000000000000300000000000300000000300,
000000000000000000000000000000000000000000100100,
000000000000500000000000000000000080000000100000,
#GOGOEND
000000100000000000200000200000000000000000100000,
000000100000100000000000100000000000200000200000,
000000200000200000000000200000000000200000000
#GOGOSTART
500,
000000000000000000000000000000000000000000000080,
000000000000100000100000100000000000100000000500,
000000000000000000000000000000000000000000000080,
000000000000100000000000100000100000000000100000,
#GOGOEND
000000000000100000100000000000200000200000200000,
000000000000100000000000100000000000100000000000,
200000000200000000200000000000000000000000
#GOGOSTART
100000,
000000000000100000000000100000100000100000100000,
000000000000200000000000100000100000100000100000,
000000000000200000000000100000100000100000100000,
100000000000400000000000000000000000000300000300,
#GOGOEND
#END

COURSE:Easy
LEVEL:4
SCOREINIT:11560
SCOREDIFF:0
#START
#MEASURE 2/4
#BARLINEOFF
000000000000000000000
#GOGOSTART
100,
#MEASURE 4/4
#BARLINEON
000000000000000000000000100000000000000000000100,
000000000000000000000000000000000000000000000100,
000000000000000000000000200000000000000000000200,
000000000000000000000000100000000000000000000000,
100000000000100000000000100000000000000000000100,
#GOGOEND
000000000000000000000000100000000000100000000000,
000000000000000000000000100000000000100000000000,
000000000000000000000000000000000000000000000100,
000000000000000000000000000000000000000000000200,
000000000000000000000000100000000000100000000000,
000000000000100000000000100000000000000000000200,
000000000000000000000000200000000000000000000000,
100000000000100000000000100000000000000000000000,
100000000000000000000000100000000000000000000100,
000000000000000000000000000000000000000000000000,
200000000000000000000000200000000000000000000200,
000000000000000000000000000000000000000000000000,
100000000000000000000000100000000000100000000000,
100000000000000000000000200000000000000000000000,
200000000000000000000000000000000000000000000000,
100000000000100000000000100000000000000000000
#GOGOSTART
500,
000000000000000000000000000000000000000000000080,
000000000000000000000000000000000000000000000500,
000000000000000000000000000000000000000000000080,
000000000000000000000000000000000000000000100000,
000000000000000000000000100000000000000000100000,
000000000000000000000000100000000000000000100000,
000000000000000000000000000000000000000000400000,
000000000000000000000000000000000000000000000000,
#GOGOEND
300000000000000000000000000000000000000000300000,
000000000000000000000000000000000000000000000000,
200000000000000000200000000000000000000000000000,
000000000000000000000000100000000000000000100000,
000000000000100000000000100000000000000000000000,
500000000000000000000000000080000000000000000
#GOGOSTART
300,
000000000000000000000000000000000000000000000300,
000000000000000000000000300000000000300000000300,
000000000000000000000000000000000000000000000300,
000000000000000000000000000000000000000000100000,
#GOGOEND
000000100000000000000000100000000000000000100000,
000000000000000000000000000000000000000000200000,
000000000000200000000000200000000000000000000
#GOGOSTART
500,
000000000000000000000000000000000000000000000080,
000000000000000000000000000000000000000000000500,
000000000000000000000000000000000000000000000080,
000000000000000000000000000000000000000000100000,
#GOGOEND
000000000000000000100000000000000000000000100000,
000000000000100000000000100000000000000000000000,
200000000000000000200000000000000000000000
#GOGOSTART
100000,
000000000000100000000000100000000000000000100000,
000000000000100000000000100000000000000000200000,
000000000000200000000000200000000000000000000000,
000000000000400000000000000000000000000000000300,
#GOGOEND
#END
