//TJADB Project
TITLE:bad guy
SUBTITLE:--Billie Eilish
BPM:135
WAVE:bad guy.ogg
OFFSET:-1.812
DEMOSTART:56.47

COURSE:Oni
LEVEL:7
BALLOON:3,4
SCOREINIT:2550
SCOREDIFF:
#START
,
10211101,
0010001110201000,
10211101,
0010001110201000,
10211102,
12101020,
1000100010111020,
0011102000112000,
1000100010111020,
0011102000112000,
1000200010111020,
0011102000112000,
1000200010111020,
0022200010002000,
1000100020111020,
0011102000112000,
1000100020111020,
0011102000112000,
1000200020111020,
0011202000112000,
1000200020111020,
0011100000222000,
1001202010111020,
1001202010111020,
1001202010111020,
1000400000002220,
1001202010122020,
1001202010122020,
1001202010122020,
10400011,
5,
000000000008000000000000000000000000400000000000,
#GOGOSTART
3010001120201020,
1010001120201020,
1010001120201020,
1010001120221022,
1020001120221020,
1020001120221020,
1020001220100020,
500000000000000000000008000000000000400000000000,
3010002120212020,
1010002120212020,
1010002120212020,
1022102120212022,
1020102120212020,
1020102120212020,
1020102120212020,
500000000000000000000008000000000000000000000000,
#GOGOEND
0,
#BPMCHANGE 120
1001101020103000,
000000200000200000100100200000000000500008000000,
1001101120103000,
0022201120007080,
1001101020103000,
000000100000200000100100200000000000500008000000,
1001201220103000,
000000100000200200100100200000000000700000000008,
#END

COURSE:Hard
LEVEL:6
SCOREINIT:3250
SCOREDIFF:
#START
,
10211101,
01011210,
10211101,
01011210,
10211102,
1112,
10101101,
0010001000111000,
10101101,
0010001000111000,
10201101,
0010001000111000,
10201101,
0022200000002000,
10102102,
0010002000111000,
10102102,
0010002000111000,
10202102,
0010002000111000,
10202102,
0011100000202000,
1000100010111010,
1000100010111010,
1000100010111010,
10400011,
2000200010111010,
2000200010111010,
2000200010111010,
2401,
5,
000000000008000000000000000000000000400000000000,
#GOGOSTART
31012111,
11012111,
11012111,
1010001020111010,
12012111,
12012111,
12012102,
500000000000000000000008000000000000400000000000,
3010002020111010,
1010002020111010,
1010002020111010,
1010002020111010,
1020002020111020,
1020002020111020,
12012102,
500000000000000000000008000000000000000000000000,
#GOGOEND
0,
#BPMCHANGE 120
1001101020003000,
02202020,
1001101020003000,
02202020,
1001101020003000,
01212020,
1001101020003000,
01212040,
#END

COURSE:Normal
LEVEL:5
SCOREINIT:4300
SCOREDIFF:
#START
,
10011101,
01011010,
10011101,
01011010,
10011101,
1110,
10100101,
01010110,
10100101,
01010110,
10200101,
01010110,
10200101,
02200020,
10100101,
01010110,
10100101,
01010110,
10200101,
01020110,
10200101,
01100200,
10201110,
10201110,
10201110,
1400,
20201110,
20201110,
20201110,
2400,
5,
000000000008000000000000000000000000400000000000,
#GOGOSTART
31011010,
11011010,
11011010,
11011010,
12011010,
12011010,
12012002,
500000000000000000000008000000000000400000000000,
31011110,
11011110,
11011110,
11022020,
12011110,
12011110,
12022202,
500000000000000000000008000000000000000000000000,
#GOGOEND
0,
#BPMCHANGE 120
10112030,
0222,
10112030,
0222,
10112030,
0222,
10112030,
0224,
#END

COURSE:Easy
LEVEL:3
SCOREINIT:7620
SCOREDIFF:
#START
,
1010,
0010,
1010,
0010,
1010,
1110,
10100101,
00010000,
10100101,
00010000,
10100101,
00020000,
10100101,
0200,
10100101,
00010000,
10100101,
00010000,
10100101,
00020000,
10100101,
0100,
1010,
1110,
1010,
1400,
2010,
2220,
2010,
2400,
5,
000000000008000000000000000000000000400000000000,
#GOGOSTART
3011,
1011,
1011,
1011,
1011,
1011,
1020,
500000000000000000000008000000000000400000000000,
3011,
1011,
1011,
1022,
1011,
1011,
1020,
500000000000000000000008000000000000000000000000,
#GOGOEND
0,
#BPMCHANGE 120
1023,
0022,
1023,
0022,
1023,
0022,
1023,
0024,
#END
