//TJADB Project
TITLE:Gunjou
TITLEJA:群青
SUBTITLE:--YOASOBI
SUBTITLEJA:YOASOBI
BPM:135
WAVE:Gunjou.ogg
OFFSET:-1.891
DEMOSTART:69.342 //Shinuchi:
8840/3670/2110/1540

COURSE:Oni
LEVEL:8
BALLOON:8,8,8
SCOREINIT:500,1600
SCOREDIFF:123
#START
1001201010201020,
1001201020101022,
1001201010202222,
1001201020102000,
1001201010102011,
1001201010201022,
1001201010201121,
1001101120001010, //8
1001201011201020,
1001201022101020,
1001201011202020,
1001201020212022,
1001201011201020,
1001201010222000, //14
20202022,
22202020,
2222,
2222,
20202022,
22202020,
2222,
20007008, //22
1010202010111020,
1011102010101020,
1010102010112020,
1011202010202020,
1020202010122020,
1012202010102210,
1022101022102011,
200000200000500000000008000000100100100000200000, //30
1011102010121020,
1012102010112020,
1011202010221022,
1022203000222020,
1022202010121020,
2011202012102000,
33343343,
03407008, //38
#GOGOSTART
1010202010111020,
1011102010121020,
1012102010112020,
1011202010212020,
1021202010122020,
1012202010112210,
1222101222102011,
200200200000500000000008000000100100100000200200, //46
1011102210121022,
1012102210112022,
1011202210122021,
1012203000222021,
1022202110121021,
2011202212102120,
500000000000000000000008000000100100100000200000,
7000008000202220,
#GOGOEND
12121222,
12121130, //56
#GOGOSTART
1022102210201020,
1022102011101020,
1021021010221020,
1021021010112220,
1022102210201020,
1022102011101020,
1021021010221020,
2012012010221110, //64
1022102210201020,
1022102011101020,
1021021010221020,
1021021010112220,
1022102210201020,
1022102011101020,
#GOGOEND
2002002000202020,
2002002000000000,
0, //73
#END

COURSE:Hard
LEVEL:6
BALLOON:6,26,6,26,6
SCOREINIT:530,2260
SCOREDIFF:133
#START
10011212,
10012112,
10011222,
10002120,
10011121,
10011212,
10011212,
1000001110001010, //8
1000001011101020,
1000001011101020,
1000001011101020,
10012222,
1000001011101020,
1000001010222000, //14
2222,
22202020,
2222,
2222,
2222,
22202020,
2222,
20007008, //22
11220112,
11120112,
11120122,
11220222,
12220222,
12220121,
7,
00008112, //30
1011102010101020,
1011102000101020,
1011102010201020,
12030222,
12221222,
11221120,
33343343,
03407008, //38
#GOGOSTART
1010202010111020,
1011102000101020,
1010102010111020,
1011102000202020,
12220222,
12220121,
7,
00008112, //46
1011102010111020,
1011102000101020,
1011102010201020,
12030222,
12221222,
11221122,
500000000000000000000008000000000000000000200000,
70080222,
#GOGOEND
12220222,
12121130, //56
#GOGOSTART
12112011,
1022200010101020,
1001001000101020,
1001001000102000,
12112012,
1022200010101020,
1001001000101020,
1001001000201010, //64
12112011,
1022200010102020,
1001001000201010,
1001001000102000,
12112011,
1022200010102020,
#GOGOEND
2002002000202020,
2002002000000000,
0, //73
#END

COURSE:Normal
LEVEL:4
BALLOON:4,16,4,16,6
SCOREINIT:650,3950
SCOREDIFF:175
#START
1011,
1011,
1012,
12,
10011010,
10011010,
10011020,
12, //8
10011110,
10011110,
10011110,
10022220,
10022220,
10011020, //14
2022,
22202000,
22,
22,
2022,
22202000,
22,
20007008, //22
1202,
1202,
1102,
1102,
1202,
1202,
7,
08, //30
10220020,
10220020,
10110020,
11030020,
10220020,
10111010,
30303033,
03307008, //38
#GOGOSTART
10220020,
10220020,
10110020,
10110020,
10220020,
10220020,
7,
08, //46
10220020,
10220020,
10110020,
11030220,
10220020,
10101110,
500000000000000000000008000000000000000000000000,
700000000000000000000000000000080000000000000000,
#GOGOEND
1202,
1223, //56
#GOGOSTART
11011010,
22201010,
10010220,
10010220,
11011010,
22201010,
10010220,
10010220, //64
11011010,
22201010,
10010220,
10010220,
11011010,
22201010,
#GOGOEND
20020220,
20020000,
0, //73
#END

COURSE:Easy
LEVEL:2
BALLOON:14,14,5
SCOREINIT:900,9050
SCOREDIFF:438
#START
1,
1,
11,
2,
1,
11,
1,
1, //8
11,
11,
11,
12,
12,
1, //14
22,
22,
22,
2,
22,
22,
22,
2, //22
1,
1,
1,
1,
2200,
2200,
7,
08, //30
1100,
1100,
1100,
1,
2200,
1110,
5,
000000000008000000000000000000000000000000000000, //38
#GOGOSTART
1100,
1100,
1100,
1100,
2200,
2200,
7,
08, //46
1100,
1100,
1100,
1,
2200,
1111,
500000000000000000000008000000000000000000000000,
700000000000000000000000000000080000000000000000,
#GOGOEND
2,
2, //56
#GOGOSTART
11,
2,
10010000,
10010000,
11,
2,
10010000,
10010000, //64
11,
2,
10010000,
10010000,
11,
2,
#GOGOEND
20020000,
20020000,
0, //73
#END
