//TJADB Project
TITLE:Gensou ni Saita Hana
TITLEJA:幻想に咲いた花
SUBTITLE:--Kishida Kyoudan & The Akeboshi Rockets/Touhou Danmaku Kagura
SUBTITLEJA:岸田教団&THE明星ロケッツ×草野華余子 「東方ダンマクカグラ」より
BPM:186
WAVE:Gensou ni Saita Hana.ogg
OFFSET:-1.800
DEMOSTART:54.228

COURSE:Oni
LEVEL:8
BALLOON:6,22
SCOREINIT:1340
SCOREDIFF:0
#START
100000000000000000200000100000100000200000200000,
100000000000000000000000000000100000200000200000,
100000000000000000200200200000200000200000100000,
000000000000100000000000100000200200200000200000,
100000000000000000100100100000100000200000200000,
100000000000200000000000200000100000200200200000,
300000000000300000300000000000300000000000300000,
000000100000100000100000200000000000200000000000,
#GOGOSTART
100000000000200000100100100000100000200000200000,
100000000000200000000000100000100000200000000000,
100000000000200000200200200000100000200000100000,
000000100000200000000000100000200200100100100000,
100000000000200000100100100000100000200000200000,
100000000000200000000000100000100000200000000000,
100000000000200000200200200000100000200000100000,
000000100100100000000000100000200000200000100000,
#GOGOEND
100000000000100000000000200000000200000000200000,
100000000000100000000000100000200000200000100000,
000000100000200000000000200000000000200000000000,
100000000000100000200000100000200000100000000000,
100000000000000000100100100000000200000000200000,
100000000000100000200000100000000200000000200000,
100000000000200000000000100000200000200000100000,
000000100000200000200000200200200000100000100100,
100000100000200200200000100000000000200000200000,
100000100000200200200000100000200000100000200000,
100000100000200200200000100000000000200000200000,
100000100000200200200000100000200000200000100000,
100000000000200200200000100000000000200000100000,
100000000000200200200000100000100000200000100000,
000000100000500000000000000000000000000008000000,
100000100000200000200000100000200200200200200000,
400000000300000000300000300000000300000000400000,
300000000000100000200000100000000000200000200000,
100000000000100000200000100000000000100000000000,
100000000000100000000000100000200000200200200000,
400000000300000000300000300000000300000000400000,
400000000000000000100100100000000200000000200000,
100000000000100000200000000000100100100000100000,
300000000300000000300000100000100100100100100000,
200000000000200000000000200200200000100100100000,
#GOGOSTART
100000000000200000100200100000100000200000200000,
100000100000200000000000100000100000200000200000,
100000100000200000100100100000100000200000100000,
000000100000200000100000200000200200100100100000,
100000000000200000000000100000100100200000200000,
100000100000200000000000100000100100200000200000,
100000000000200000100100100000100000200000100000,
000000100000200000000000100000100100100100100000,
100000000000200000100200100000100000200000200000,
100000100000200000000000100000100000200000200000,
100000000000200000100100200000100000200000300000,
000000300000000000300000000000400000300000300000,
000000100000200000000000100100100000200000100000,
100100100000200200200000100100100000200200200000,
300000000000300000300000000000300000000000300000,
000000000000300000000000400000000000400000000000,
#GOGOEND
100000000000200000100100100000100000200000200000,
100000000000200000000000100000100000200000000000,
100000000000200000200200200000100000200000100000,
000000100000200000000000100000200200100100100000,
100000000000200000100100100000100000200000200000,
100000000000200000000000100000100000200000000000,
100000000000200000200200200000100000200000700000,
000000000000000000800000000000100000200000200000,
100000000000000000200200200000100000200000200000,
100000000000000000000000000000100000200000200000,
100000000000000000200200200000100000200000100000,
000000000000000000000000000000100000200000200000,
100000000000100000200200100000200000100000200000,
100000000000100000000000100000200000200200200000,
300000000000300000300000000000300000000000300000,
000000400000000000400000000000400000000000600000,
000000000000000000000000000000000000000008000000,
200000000000200000000000100100100000200200200000,
#GOGOSTART
100100100000200000100200100000100000200000200000,
100100100000200000000000100100100000200000200000,
100100100000200000100100200000100000200000100000,
000000100100200000100000200000200200100100100000,
100100100000200000200000100000100100200200200000,
100100100000200000200000100000100100200200200000,
100100100000200000100100100000100000200000100100,
100000100000200000200000100000100100100100100000,
100100100000200000100200100000100000200000200000,
100100100000200000000000100100100000200000200000,
100100100000200000100100200000100000200000300000,
000000300000000000300000000000400000300000300000,
000000100000200200200000100100100000200000100000,
100100100000200200200000100100100000200200200000,
300000000000300000300000000000300000000000300000,
000000000000300000000000100100100000200200200000,
300000000000300000300000000000300000000000100000,
200000100000000000300000000000400000000000600000,
000000000000000000000000000000000000000000000000,
000000000000000000000008000000000000000000000000,
#GOGOEND
100100100000200000200000100000200200200000100100,
100000200000200000100000100000000000200000000000,
100100100000200000200000100000200200200000100000,
000000300000000000400000000000400000000000300000,
000000100100200200200000102000001020000010200000,
100000200200200000200200100100100000200200200000,
100100100000200000200000100000200200200000100100,
100000100000200000100000100000100100100100100000,
#BPMCHANGE 165
7,
0008,
2
#BPMCHANGE 180
202,
#BPMCHANGE 160
2
#BPMCHANGE 141.5
2
#BPMCHANGE 148
2
#BPMCHANGE 143
2,
#BPMCHANGE 135.5
2
#BPMCHANGE 148
2
#BPMCHANGE 140.5
2
#BPMCHANGE 110
2,
2,
#END

COURSE:Hard
LEVEL:6
BALLOON:7,10,6,11,80
SCOREINIT:2070
SCOREDIFF:0
#START
100000000000000000200000100000000000200000200000,
100000000000000000000000000000200000200000200000,
100000000000000000200000200000000000200000200000,
000000000000100000000000100000000000200000200000,
100000000000000000200000100000100000200000200000,
100000000000000000000000000000200000200000200000,
300000000000300000300000000000300000000000300000,
000000000000000000000000200000000000200000000000,
#GOGOSTART
100000000000000000200000100000100000200000200000,
100000000000200000000000100000100000200000000000,
100000000000000000200000100000100000200000100000,
000000100000200000000000100000100000200000000000,
100000000000000000200000100000100000200000200000,
100000000000200000000000100000100000200000000000,
100000000000000000200000100000100000200000700000,
000000000000000000000000800000000000000000000000,
#GOGOEND
100000000000000000000000100000000200000000200000,
100000000000000000000000100000200000200000100000,
000000100000200000000000000000000000000000000000,
100000000000200000000000200000200000200000000000,
100000000000000000000000100000000200000000200000,
100000000000000000100000100000000200000000200000,
100000000000000000000000100000200000200000100000,
000000100000200000000000100000100000100000000000,
100000100000000000200000100000000000200000000000,
100000100000200000100000100000000000200000000000,
100000100000000000200000100000000000200000000000,
100000100000200000100000100000000000200000000000,
100000000000200000100000100000000000200000000000,
100000000000200000100000100000000000200000100000,
000000100000500000000000000000000000000000000000,
000000000008000000000000000000000000000000000000,
300000000300000000300000300000000300000000300000,
300000000000000000000000100000000000200000200000,
100000000000100000200000100000000000100000000000,
100000000000100000000000200000000000200000000000,
300000000300000000300000300000000300000000300000,
300000000000000000000000100000000200000000200000,
100000000000000000000000000000100000100000100000,
300000000300000000300000600000000000000000000008,
000000000000000000000000000000200000200000200000,
#GOGOSTART
100000000000100000100100100000100000100000100000,
100000000000200000000000100000100000200000200000,
100000000000100000100100100000100000100000100000,
000000000000200000000000100000000000200000200000,
100000000000200000000000100000100000200000200000,
100000000000200000000000100000100000200000200000,
100000000000200000100000100000100000200000600000,
000000000000000008000000000000100000200000200000,
100000000000100000100100100000100000100000100000,
100000000000200000000000100000100000200000200000,
100000000000100000100100100000100000100000300000,
000000300000000000300000000000300000300000600000,
000000000000000080000000000000200000200000200000,
100000100000200000000000100000100000200000000000,
300000000000300000300000000000300000000000300000,
000000000000300000000000400000000000400000000000,
#GOGOEND
900000000000000000000000000000000000000000800000,
000000000000000000000000000000000000000000000000,
100000000000000000200000100000100000200000100000,
000000100000200000000000100000100000200000000000,
100000000000000000200000100000100000200000200000,
100000000000200000000000100000100000200000000000,
100000000000000000200000100000100000200000700000,
000000000000000000800000000000000000000000000000,
100000000000000000200000200000200000200000200000,
100000000000000000000000000000200000200000200000,
100000000000000000200000200000100000200000100000,
000000000000000000000000000000100000200000200000,
100000000000000000200000100000200000100000200000,
100000000000000000000000000000100000200000200000,
300000000000300000300000000000300000000000300000,
000000400000000000400000000000400000000000600000,
000000000000000000000000000000000000000000000008,
000000000000000000000000000000100000200000200000,
#GOGOSTART
100000000000100000100100100000100000100000100000,
100000000000200000000000100000100000200000200000,
100000000000100000100100100000100000100000100000,
000000000000200000000000100000000000200000200000,
100000000000200000000000100000100000200000200000,
100000000000200000000000100000100000200000200000,
100000000000200000100000100000100000200000600000,
000000000000000008000000000000100000200000200000,
100000000000200000200200200000200000100000100000,
100000000000200000000000100000100000200000200000,
100000000000100000100100100000100000100000300000,
000000300000000000300000000000300000300000600000,
000000000000000008000000000000200000200000200000,
100000100000200000000000100000100000200000000000,
300000000000300000300000000000300000000000300000,
000000000000300000000000400000000000400000000000,
300000000000300000300000000000300000000000300000,
000000400000000000300000000000400000000000600000,
000000000000000000000000000000000000000000000000,
000000000000000000000008000000000000000000000000,
#GOGOEND
100000000000200000000000100000200000200000100000,
100000100000200000100000100000000000200000000000,
100000000000200000000000100000200000200000100000,
000000300000000000400000000000400000000000700000,
000000000000000000000000000000800000000000000000,
100000100000100000000000200000000000200000000000,
100000000000200000000000100000200000200000100000,
000000100000200000100000000000100000200000200000,
#BPMCHANGE 165
7,
,
,
0
#BPMCHANGE 180
000,
#BPMCHANGE 160
0
#BPMCHANGE 141.5
0
#BPMCHANGE 148
0
#BPMCHANGE 143
0,
#BPMCHANGE 135.5
000000000000
#BPMCHANGE 148
000000000000
#BPMCHANGE 140.5
000000000000
#BPMCHANGE 110
800000000000,
#END

COURSE:Normal
LEVEL:5
BALLOON:5,7,5,7,55
SCOREINIT:3730
SCOREDIFF:0
#START
100000000000000000000000200000000000000000000000,
200000000000000000000000000000000000000000000000,
200000000000000000000000200000000000000000200000,
000000000000200000000000200000000000000000000000,
100000000000000000000000100000000000000000000000,
100000000000000000000000000000000000000000000000,
300000000000000000300000000000300000000000300000,
000000000000000000000000200000000000200000000000,
#GOGOSTART
100000000000000000000000100000000000100000000000,
100000000000000000000000100000000000100000000000,
100000000000000000000000100000000000100000100000,
000000000000000000000000200000000000200000000000,
100000000000000000000000100000000000100000000000,
100000000000000000000000100000000000100000000000,
100000000000000000000000100000000000100000700000,
000000000000000000800000000000000000000000000000,
#GOGOEND
100000000000000000000000200000000000000000000000,
200000000000000000000000200000000000000000000000,
200000000000000000000000000000000000000000000000,
200000000000000000000000000000000000000000000000,
100000000000000000000000200000000000000000000000,
200000000000000000000000200000000000000000000000,
200000000000000000000000000000000000000000000000,
200000000000000000000000000000000000000000000000,
100000000000000000100000100000000000000000000000,
100000000000100000000000200000000000000000000000,
100000000000000000100000100000000000000000000000,
100000000000100000000000200000000000000000000000,
100000000000000000100000100000000000000000000000,
100000000000000000000000100000000000000000100000,
000000500000000000000000000000000000000000000000,
000000000080000000000000000000000000000000000000,
300000000300000000000000300000000300000000000000,
300000000000000000000000200000000000000000000000,
100000000000100000000000100000000000000000000000,
200000000000200000000000200000000000000000000000,
300000000300000000000000300000000300000000000000,
300000000000000000000000200000000000000000000000,
100000000000000000000000000000100000100000100000,
600000000000000000000000000000000000000000000080,
000000000000000000000000000000000000000000000000,
#GOGOSTART
100000000000000000100000100000000000100000100000,
100000000000000000000000000000100000000000100000,
100000000000000000000000100000000000100000100000,
000000000000200000000000200000000000100000100000,
100000000000000000000000000000200000200000200000,
200000000000000000000000000000100000100000100000,
100000000000000000100000100000000000100000600000,
000000000000000080000000000000000000000000000000,
100000000000000000100000100000000000100000100000,
100000000000000000000000000000100000100000100000,
100000000000000000000000100000100000000000300000,
000000300000000000300000000000300000000000600000,
000000000000000080000000000000000000000000000000,
100000000000200000000000100000000000200000000000,
300000000000000000300000000000300000000000300000,
000000000000300000000000300000000000300000000000,
#GOGOEND
9,
8,
100000000000000000000000100000000000100000100000,
000000000000000000000000200000000000200000000000,
100000000000000000000000100000000000100000000000,
100000000000000000000000200000000000200000000000,
100000000000000000000000100000000000100000700000,
000000000000800000000000000000000000000000000000,
200000000000000000000000200000000000200000000000,
200000000000000000000000000000000000000000000000,
200000000000000000000000200000000000200000200000,
000000000000000000000000000000000000000000000000,
100000000000000000000000200000000000200000000000,
100000000000000000000000000000000000000000000000,
300000000000000000300000000000300000000000300000,
000000400000000000400000000000400000000000600000,
000000000000000000000000000000000000000000000080,
000000000000000000000000000000000000000000000000,
#GOGOSTART
100000000000000000100000100000000000100000100000,
100000000000000000000000000000100000000000100000,
100000000000000000000000100000000000100000100000,
000000000000100000000000100000000000100000100000,
100000000000000000000000000000200000200000200000,
200000000000000000000000000000100000100000100000,
100000000000000000100000100000000000100000600000,
000000000000000080000000000000000000000000000000,
100000000000000000100000100000000000100000100000,
100000000000000000000000000000100000100000100000,
100000000000000000000000100000100000000000300000,
000000300000000000300000000000300000000000600000,
000000000000000080000000000000000000000000000000,
100000000000200000000000100000000000200000000000,
300000000000000000300000000000300000000000300000,
000000000000300000000000300000000000300000000000,
300000000000000000300000000000300000000000300000,
000000400000000000400000000000400000000000600000,
000000000000000000000000000000000000000000000000,
000000000000000000000080000000000000000000000000,
#GOGOEND
100000000000100000000000100000000000000000100000,
100000000000100000000000200000000000000000000000,
100000000000100000000000100000000000000000100000,
000000300000000000300000000000300000000000700000,
000000000000000000000000000000800000000000000000,
100000000000100000000000200000000000000000000000,
100000000000200000000000200000000000000000100000,
000000200000000000200000000000000000000000000000,
#BPMCHANGE 165
7,
,
,
0
#BPMCHANGE 180
000,
#BPMCHANGE 160
0
#BPMCHANGE 141.5
0
#BPMCHANGE 148
0
#BPMCHANGE 143
0,
#BPMCHANGE 135.5
000000000000
#BPMCHANGE 148
000000000000
#BPMCHANGE 140.5
000000000000
#BPMCHANGE 110
800000000000,
#END

COURSE:Easy
LEVEL:3
BALLOON:8,4,6,4,8,11,44
SCOREINIT:8420
SCOREDIFF:0
#START
100000000000000000000000000000000000000000000000,
200000000000000000000000000000000000000000000000,
200000000000000000000000200000000000000000200000,
000000000000000000000000000000000000000000000000,
100000000000000000000000100000000000000000000000,
100000000000000000000000000000000000000000000000,
700000000000000000000000000000000000000000000000,
000000000000000000800000000000000000000000000000,
#GOGOSTART
100000000000000000000000100000000000000000000000,
100000000000000000000000000000000000000000000000,
100000000000000000000000100000000000000000100000,
000000000000000000000000000000000000000000000000,
100000000000000000000000100000000000000000000000,
100000000000000000000000000000000000000000000000,
100000000000000000000000100000000000000000700000,
000000000000000000800000000000000000000000000000,
#GOGOEND
200000000000000000000000000000000000000000000000,
200000000000000000000000000000000000000000000000,
200000000000000000000000000000000000000000000000,
000000000000000000000000000000000000000000000000,
200000000000000000000000000000000000000000000000,
200000000000000000000000000000000000000000000000,
200000000000000000000000000000000000000000000000,
000000000000000000000000000000000000000000000000,
100000000000000000000000000000000000000000000000,
100000000000000000000000100000000000000000000000,
100000000000000000000000000000000000000000000000,
100000000000000000000000100000000000000000000000,
100000000000000000000000200000000000000000000000,
200000000000000000000000500000000000000000000000,
000000000000000000000000000000000000000000000000,
000000000080000000000000000000000000000000000000,
300000000000000000000000300000000000000000000000,
300000000000000000000000000000000000000000000000,
100000000000000000000000100000000000000000000000,
100000000000000000000000000000000000000000000000,
300000000000000000000000300000000000000000000000,
300000000000000000000000200000000000000000000000,
100000000000000000000000000000000000000000000000,
600000000000000000000000000000000000000000000080,
000000000000000000000000000000000000000000000000,
#GOGOSTART
100000000000000000000000100000000000000000000000,
100000000000000000000000000000000000000000000000,
100000000000000000000000100000000000000000100000,
000000000000000000000000000000000000000000000000,
100000000000000000000000000000000000000000000000,
200000000000000000000000000000000000000000000000,
100000000000000000000000100000000000000000600000,
000000000000000080000000000000000000000000000000,
100000000000000000000000200000000000200000000000,
200000000000000000000000000000000000000000000000,
100000000000000000000000000000000000000000300000,
000000000000000000300000000000000000000000600000,
000000000000000080000000000000000000000000000000,
200000000000000000000000200000000000000000000000,
300000000000000000300000000000000000000000300000,
000000000000000000000000300000000000000000000000,
#GOGOEND
9,
8,
100000000000000000000000100000000000000000100000,
000000000000000000000000000000000000000000000000,
100000000000000000000000100000000000000000000000,
100000000000000000000000000000000000000000000000,
100000000000000000000000100000000000000000700000,
000000000000800000000000000000000000000000000000,
200000000000000000000000000000000000000000000000,
200000000000000000000000000000000000000000000000,
200000000000000000000000000000000000000000200000,
000000000000000000000000000000000000000000000000,
200000000000000000000000200000000000000000000000,
200000000000000000000000200000000000000000000000,
700000000000000000000000000000000000000000000000,
000000000000000000800000000000000000000000600000,
000000000000000000000000000000000000000000000080,
000000000000000000000000000000000000000000000000,
#GOGOSTART
100000000000000000000000100000000000000000000000,
100000000000000000000000000000000000000000000000,
100000000000000000000000100000000000000000100000,
000000000000000000000000000000000000000000000000,
100000000000000000000000000000000000000000000000,
200000000000000000000000000000000000000000000000,
100000000000000000000000100000000000000000600000,
000000000000000080000000000000000000000000000000,
100000000000000000000000100000000000000000000000,
100000000000000000000000000000000000000000000000,
100000000000000000000000100000000000000000600000,
000000000000000000000000000000000000000000000000,
000000000000000080000000000000000000000000000000,
200000000000000000000000200000000000000000000000,
300000000000000000300000000000000000000000300000,
000000000000000000000000300000000000000000000000,
300000000000000000300000000000000000000000300000,
000000000000000000300000000000000000000000600000,
000000000000000000000000000000000000000000000000,
000000000000000000000080000000000000000000000000,
#GOGOEND
100000000000000000000000000000000000000000000000,
100000000000000000000000100000000000000000000000,
100000000000000000000000000000000000000000100000,
000000000000000000300000000000000000000000700000,
,
08,
200000000000000000000000000000000000000000200000,
000000000000000000000000000000000000000000000000,
#BPMCHANGE 165
7,
,
,
0
#BPMCHANGE 180
000,
#BPMCHANGE 160
0
#BPMCHANGE 141.5
0
#BPMCHANGE 148
0
#BPMCHANGE 143
0,
#BPMCHANGE 135.5
000000000000
#BPMCHANGE 148
000000000000
#BPMCHANGE 140.5
000000000000
#BPMCHANGE 110
800000000000,
#END
