//TJADB Project
TITLE:Matsuyoi Night Bug
TITLEJA:マツヨイナイトバグ
SUBTITLE:--beatMARIO (COOL&CREATE) feat. MARON (IOSYS)/Touhou Danmaku Kagura
SUBTITLEJA:COOL&CREATE feat.ビートまりおとまろん 「東方ダンマクカグラ」より
BPM:190
WAVE:Matsuyoi Night Bug.ogg
OFFSET:-1.353
DEMOSTART:54.998

COURSE:Edit
LEVEL:10
BALLOON:3
SCOREINIT:920
SCOREDIFF:0
#START
#BARLINEOFF
#MEASURE 2/4
#SCROLL 1.25
00114000,
#GOGOSTART
#BARLINEON
#MEASURE 4/4
3012102011221020,
1120112010114010,
300000200100200000100000200000202020200000100000,
000000100200100000200000101010100000400000000000,
3012102011221020,
1120112010114010,
3000002230000030,
000000300200300000400000600008000000400000000000,
#GOGOEND
11212111,
21211122,
11212111,
200100200100100111100200,
11212111,
21211122,
11212112,
0040002240423031,
3011201020111010,
2011201010114222,
3011201020111010,
2011201230114022,
3011201020111011,
4011201011112222,
3021201040121020,
3131424231314242,
3021201212121021,
2121212120104000,
3011301130114011,
3011301031314010,
4000102121212012,
1212121212104000,
3011301130114011,
300200200111700000800000,
3023203232323023,
2323232320304000,
300100300100300000101010100000101010200000101010,
100100111100222200400300,
4032302323232032,
3232323232304000,
300111100100400222200200,
300000100100400000200200101010100000400000000000,
3030003032223030,
600000000000000000000008000000000000000000000000,
#GOGOSTART
3020112010323230,
1020112010414140,
1022112011221020,
3122312231114222,
3022112010323230,
1022112010414140,
3030404030223030,
000400400300300111200000,
3020122010323230,
1020122010414140,
1022122012221020,
3222322231114222,
3022122010323230,
3022122010414140,
3011402230114222,
3000100031313131,
3012102030212010,
4001401021112111,
#GOGOEND
4111114111114111,
4012012030210210,
3000201140120120,
3002112030021120,
4222311142223111,
4010401040114111,
4000114000102222,
3111223111223111,
4000114011114010,
2211401040214000,
3011104011223020,
3012104011114000,
3122112231221122,
500000000000000000000008000000000000000000000000,
2221222140004000,
#GOGOSTART
3020112011323230,
1020112011414140,
1021112011211020,
3122312231114222,
3021112011323230,
1021112011414140,
3030404032223030,
000000400200400000300000300000101010200000000000,
#GOGOEND
2000
#GOGOSTART
302011323230,
1020122011414140,
1021122012211020,
3222322231114222,
3021122011323230,
3021122011414140,
3142314231423142,
3122,
3012102011221020,
1120112010114010,
300000200100200000100000200000202020200000100000,
000000100200100000200000101010100000400000000000,
3012102011221020,
1120112010114010,
3000002230000030,
000000300200300000400000600008000000400000000000,
#GOGOEND
#SCROLL 1
2022202020202020,
#BARLINEOFF
#SCROLL 2
000000300000300400000400600000000000000000000008,
#END

COURSE:Oni
LEVEL:8
BALLOON:23,23,23
SCOREINIT:1450
SCOREDIFF:0
#START
#BARLINEOFF
#MEASURE 2/4
,
#GOGOSTART
#BARLINEON
#MEASURE 4/4
100000100100100000200000100000100100200000200000,
100000100100100000100000200000200000200000100000,
100000200000200000100000100000100100100000200000,
100000100100200000200000100000200000200000000000,
100000100100100000200000100000100100200000200000,
100000100100100000100000200000200000200000300000,
300000000000000000300000300000000000000000500000,
000000000000000000000000000000000008000000000000,
#GOGOEND
100000000000100000100100200000000000100000100100,
100000000000200000200200100000100000200000000000,
100000000000100000100100200000000000100000100100,
100000100000200000000000100000100100100000200000,
100000000000100000100100200000000000100000100100,
100000100000100000000000200000000000200000000000,
100000000000100000000000100000100100200000100000,
100000400000000000400000400000300000300000400000,
400000000000100000100100200000000000100000100100,
100000000000200000200200100000100000200000000000,
100000000000100000100100200000000000100000100100,
100000100000200000200200200000100100200000100000,
100000000000100000100100200000000000100000100100,
100000100000200000000000200000000100000000100000,
500000000000000000000000000000000000000008000000,
300000300000400000400000300000300000400000300000,
300000000000100000200200200000000000100000100100,
200000100000100000000000200000100000200000000000,
700000000000000000000000000000000000000000000000,
000000000000000000000000800000000000000000000000,
200000000000200000200200200000000000100000100100,
200000200000100000000000200000100000200000000000,
700000000000000000000000000000000000000000000000,
000000000000000000000000800000000000000000000000,
100000000000100000200200200000000000100000100100,
200000100000100000000000200000100000200000000000,
700000000000000000000000000000000000000000000000,
000000000000000000000000800000000000000000000000,
200000000000200000200200200000000000100000100100,
200000200000100000000000100000100000200000000000,
100000100100100000200000100100100000200000000000,
100000100000200000000000600000000000000008000000,
200000200000000000200000200000100100200000200000,
100000000000000000000000100000000000000000000000,
#GOGOSTART
100000100100200000100000100000100000200000100000,
000000100100200000100000200000100100200000000000,
100000100100200000200000200000100000100000100100,
100000100000200000200000100000100100200000000000,
100000100100200000100000100000100000200000100100,
100000100100200000100000100000100100200000000000,
100000100100200000100000200000100100100000100000,
000000400000400000300000300000000000400000000000,
100000100100200000100000100000100000200000100000,
000000100100200000100000200000100100200000000000,
100000100100200000200000200000100000100000100100,
100000100000200000100000200000100100200000000000,
100000100100200000100000100000100000200000100000,
000000100100200000100000100000100100200000000000,
100000100100200000100000200000100100200000000000,
300000000000300000000000400000000000400000000000,
500000000000000000000000000000000000000000000000,
000000000000000000000000000000000000000008000000,
#GOGOEND
100000100100100000100000200200100100100000200000,
100000000100000000100000200000000200000000200000,
100000000000000000200000200000000200000000200000,
100000000100000000100000200000000200000000200000,
100000100000200000200000100000200000200000100000,
100000000000100000000000200000100000200200200000,
100000000000100000200200200000000000100100100000,
100100100000200200200000100100100000200200200000,
100000000000100000200200200000000000100100100000,
100000100000100000200000500000000008000000000000,
100000000000200000100100100000000000200000100100,
100000200000100000100100200000000000200000000000,
500000000000000000000000000000000000000008000000,
200000000000000000000000200000000000000000000000,
100100200200100100200200100000000000100000000000,
#GOGOSTART
100000100100200000100000100000100000200000100000,
000000100100200000100000200000100100200000000000,
100000100100200000200000200000100000100000100100,
100000100000200000100000100000100100200000000000,
100000100100200000100000100000100100200000100000,
000000100100200000100000200000100100200000000000,
100000100100200000100000200200100100200000100000,
000000400000400000300000300000000000400000000000,
#GOGOEND
100000100100
#GOGOSTART
200000100000100000100000200000100000,
000000100100200000100000200000100100200000000000,
100000100100200000200000200000100000100000100100,
100000100000200000100000200000100100200000000000,
100000100100200000100000100000100000200000100000,
000000100100200000100000200000100100200000000000,
100000100100200000200000100000100100200000200000,
300000000000300000000000400000000000400000000000,
500000000000000000000000000000000000000000000000,
000000000000000000000000000000000000000008000000,
100000200000200000100000100000100100100000200000,
100000100100200000200000100000200000200000000000,
100000100100100000200000100000100100200000200000,
100000100100100000100000200000200000200000300000,
300000000000000000300000300000000000000000100000,
000000100100200000200000100000000000200000000000,
#GOGOEND
100000100100200000100000200000100000200000200000,
000000100000200200000600000000000000000000000008,
#END

COURSE:Hard
LEVEL:5
BALLOON:17,17,17,36,23
SCOREINIT:2210
SCOREDIFF:0
#START
#BARLINEOFF
#MEASURE 2/4
,
#GOGOSTART
#BARLINEON
#MEASURE 4/4
100000000000100000100000100000000000200000200000,
100000000000100000000000200000200000200000200000,
100000200000200000000000100000100000000000100000,
100000100100100000100000100000000000200000000000,
100000000000100000100000100000000000200000200000,
100000000000100000000000200000200000200000300000,
300000000000000000300000300000000000000000500000,
000000000000000000000000000000000080000000000000,
#GOGOEND
100000000000100000000000100000000000100000100000,
100000000000200000200000100000000000200000000000,
100000000000100000100000200000000000100000200000,
100000100000200000000000100000100000100000200000,
100000000000100000000000100000000000100000200000,
100000100000100000000000200000000000200000000000,
100000000000100000000000100000200000100000100000,
100000400000000000400000400000400000400000400000,
400000000000100000000000100000000000100000100000,
100000000000200000200000100000000000200000000000,
100000000000100000100000200000000000100000100000,
100000100000200000000000200000100000200000100000,
100000000000100000000000100000000000100000200000,
100000100000200000000000200000000100000000100000,
500000000000000000000000000000000000000080000000,
300000300000400000400000300000300000400000300000,
300000000000100000100000100000000000100000200000,
100000000000100000000000200000100000200000000000,
700000000000000000000000000000000000000000000000,
000000000000000000800000000000000000000000000000,
200000000000200000200000200000000000100000200000,
100000000000100000000000200000100000200000000000,
700000000000000000000000000000000000000000000000,
000000000000000000800000000000000000000000000000,
100000000000100000100000100000000000100000200000,
100000000000100000000000200000100000200000000000,
700000000000000000000000000000000000000000000000,
000000000000000000800000000000000000000000000000,
100000000000200000200000200000000000100000200000,
100000000000100000000000200000100000200000000000,
600000000000000000000000000000000000000000000000,
000000000000000000000000000000000000000080000000,
200000200000000000200000200000000000200000200000,
100000000000000000000000100000000000000000000000,
#GOGOSTART
100000200000100000100000200000000000200000100000,
000000100000100000100000200000000000200000000000,
100000100000000000200000200000100000100000100000,
000000100000100000100000200000000000200000000000,
100000200000100000100000200000000000200000100000,
000000100000100000100000200000000000200000000000,
100000100000100000000000200000000000100000100000,
000000400000400000300000300000000000400000000000,
100000200000100000100000200000000000200000100000,
000000100000100000100000200000000000200000000000,
100000100000000000200000200000100000100000100000,
000000100000100000100000200000000000200000000000,
100000200000100000100000200000000000200000100000,
000000100000100000100000200000000000200000000000,
300000000000200000000000300000200000200000000000,
300000000000300000000000400000000000400000000000,
500000000000000000000000000000000000000000000000,
000000000000000000000000000000000000000080000000,
#GOGOEND
100000000000100000100000200000100000100000200000,
100000000100000000100000200000000200000000200000,
100000000000000000200000200000000200000000200000,
100000000100000000100000200000000200000000200000,
100000100000100000100000200000200000200000200000,
100000000000000000000000200000000000000000000000,
900000000000000000000000000000000000000000000000,
000000000000000000000000000000000000000000000000,
000000000000000000000000000000000000000000800000,
000000000000000000000000000000000000000000000000,
100000000000200000100000100000000000200000100000,
100000200000100000100000200000000000200000000000,
100000000000000000000000100000000000000000000000,
200000000000000000000000200000000000000000000000,
200000200000200000200000100000000000100000000000,
#GOGOSTART
100000200000100000100000200000000000200000100000,
000000100000100000100000200000000000200000000000,
100000100000000000200000200000100000100000100000,
000000100000100000100000200000000000200000000000,
100000200000100000100000200000000000200000100000,
000000100000100000100000200000000000200000000000,
100000100000100000000000200000000000100000100000,
000000400000400000300000300000000000400000000000,
#GOGOEND
100000200000
#GOGOSTART
100000100000200000000000200000100000,
000000100000100000100000200000000000200000000000,
100000100000000000200000200000100000100000100000,
000000100000100000100000200000000000200000000000,
100000200000100000100000200000000000200000100000,
000000100000100000100000200000000000200000000000,
100000100000200000200000100000100000100000000000,
300000000000300000000000400000000000400000000000,
900000000000000000000000000000000000000000000000,
000000000000000000000000000000000000000000800000,
000000000000000000000000000000000000000000000000,
000000000000000000000000000000000000000000000000,
100000000000100000100000100000000000200000200000,
100000000000100000000000200000200000200000300000,
300000000000000000300000300000000000000000500000,
000000000000000000000000000000000080000000000000,
#GOGOEND
100000000000200000200000200000100000200000200000,
000000600000000000000000000000000000000000000008,
#END

COURSE:Normal
LEVEL:5
BALLOON:12,12,12,22,15
SCOREINIT:3720
SCOREDIFF:0
#START
#BARLINEOFF
#MEASURE 2/4
,
#GOGOSTART
#BARLINEON
#MEASURE 4/4
100000000000000000000000100000000000000000000000,
100000000000100000000000200000000000000000000000,
100000000000000000000000100000000000000000000000,
100000000000100000000000100000000000000000000000,
100000000000000000000000100000000000000000000000,
100000000000100000000000200000000000000000000000,
300000000000000000300000300000000000000000500000,
000000000000000000000000000000000080000000000000,
#GOGOEND
100000000000100000000000100000000000100000100000,
100000000000100000000000200000000000000000000000,
100000000000100000100000100000000000100000100000,
100000000000100000000000200000000000000000000000,
100000000000100000000000100000000000100000100000,
100000000000100000000000200000000000000000000000,
100000000000100000000000100000000000100000500000,
000000000000000000000000000080000000000000000000,
100000000000100000000000100000000000100000100000,
100000000000100000000000200000000000000000000000,
100000000000100000100000100000000000100000100000,
100000000000100000000000200000000000000000000000,
100000000000100000000000100000000000100000100000,
100000000000100000000000200000000000000000000000,
500000000000000000000000000000000000000000000080,
000000000000000000000000000000000000000000000000,
100000000000100000000000100000000000100000100000,
100000000000100000000000200000000000000000000000,
700000000000000000000000000000000000000000000000,
000000000000000000800000000000000000000000000000,
100000000000100000000000200000000000100000100000,
100000000000100000000000200000000000000000000000,
700000000000000000000000000000000000000000000000,
000000000000000000800000000000000000000000000000,
100000000000100000000000100000000000100000100000,
100000000000100000000000200000000000000000000000,
700000000000000000000000000000000000000000000000,
000000000000000000800000000000000000000000000000,
100000000000100000000000200000000000100000100000,
100000000000100000000000200000000000000000000000,
600000000000000000000000000000000000000000000000,
000000000000000000000000000000000000000000000080,
000000000000000000000000000000000000000000000000,
100000000000000000000000100000000000000000000000,
#GOGOSTART
100000000000100000100000100000000000000000100000,
000000000000100000000000200000000000000000000000,
100000100000000000100000100000000000100000100000,
000000000000100000000000200000000000000000000000,
100000000000100000100000100000000000000000100000,
000000000000100000000000100000000000000000000000,
300000000000000000000000300000000000000000300000,
000000300000300000000000300000000000000000000000,
100000000000100000100000100000000000000000100000,
000000000000100000000000200000000000000000000000,
100000100000000000100000100000000000100000100000,
000000000000100000000000200000000000000000000000,
100000000000100000100000100000000000000000100000,
000000000000100000000000100000000000000000000000,
300000000000000000000000300000000000000000000000,
300000000000300000000000400000000000400000000000,
500000000000000000000000000000000000000000000000,
000000000000000000000000000000000080000000000000,
#GOGOEND
100000000000100000100000100000000000000000000000,
100000000000000000000000200000000000000000000000,
100000000000000000200000200000000000000000100000,
100000000000000000000000100000000000000000000000,
100000100000100000000000200000200000200000000000,
100000000000000000000000100000000000000000000000,
900000000000000000000000000000000000000000000000,
000000000000000000000000000000000000000000000000,
000000000000000000000000000000000000000000800000,
000000000000000000000000000000000000000000000000,
100000000000100000100000100000000000000000000000,
100000000000200000200000200000000000000000000000,
100000000000000000000000100000000000000000000000,
200000000000000000000000200000000000000000000000,
000000000000000000000000100000000000100000000000,
#GOGOSTART
100000000000100000100000100000000000000000100000,
000000000000100000000000200000000000000000000000,
100000100000000000100000100000000000100000100000,
000000000000100000000000200000000000000000000000,
100000000000100000100000100000000000000000100000,
000000000000100000000000200000000000000000000000,
300000000000000000000000300000000000000000300000,
000000300000300000000000300000000000000000000000,
#GOGOEND
100000000000
#GOGOSTART
100000100000100000000000000000100000,
000000000000100000000000200000000000000000000000,
100000100000000000100000100000000000100000100000,
000000000000100000000000200000000000000000000000,
100000000000100000100000100000000000000000100000,
000000000000100000000000200000000000000000000000,
300000000000000000000000400000000000000000000000,
300000000000300000000000400000000000400000000000,
900000000000000000000000000000000000000000000000,
000000000000000000000000000000000000000000800000,
000000000000000000000000000000000000000000000000,
000000000000000000000000000000000000000000000000,
100000000000000000000000100000000000000000000000,
100000000000100000000000200000000000000000000000,
300000000000000000300000300000000000000000500000,
000000000000000000000000000000000080000000000000,
#GOGOEND
100000000000200000000000200000000000200000200000,
000000600000000000000000000000000000000000000080,
#END

COURSE:Easy
LEVEL:4
BALLOON:9,9,9,18,12
SCOREINIT:6550
SCOREDIFF:0
#START
#BARLINEOFF
#MEASURE 2/4
,
#GOGOSTART
#BARLINEON
#MEASURE 4/4
100000000000000000000000000000000000000000000000,
100000000000000000000000200000000000000000000000,
100000000000000000000000000000000000000000000000,
100000000000000000000000100000000000000000000000,
100000000000000000000000000000000000000000000000,
100000000000000000000000200000000000000000000000,
300000000000000000000000300000000000000000500000,
000000000000000000000000000080000000000000000000,
#GOGOEND
100000000000000000000000000000000000000000000000,
100000000000000000000000100000000000000000000000,
100000000000000000000000000000000000000000000000,
100000000000000000000000100000000000000000000000,
100000000000000000000000000000000000000000000000,
100000000000000000000000100000000000000000000000,
100000000000000000000000000000000000000000000000,
500000000000000000000000000080000000000000000000,
100000000000000000000000000000000000000000000000,
100000000000000000000000100000000000000000000000,
100000000000000000000000000000000000000000000000,
100000000000000000000000100000000000000000000000,
100000000000000000000000000000000000000000000000,
100000000000000000000000100000000000000000000000,
500000000000000000000000000000000000000000000080,
000000000000000000000000000000000000000000000000,
000000000000100000000000100000000000000000000000,
100000000000000000000000100000000000000000000000,
700000000000000000000000000000000000000000000000,
000000000000000000800000000000000000000000000000,
000000000000100000000000100000000000000000000000,
100000000000000000000000100000000000000000000000,
700000000000000000000000000000000000000000000000,
000000000000000000800000000000000000000000000000,
000000000000100000000000100000000000000000000000,
100000000000000000000000100000000000000000000000,
700000000000000000000000000000000000000000000000,
000000000000000000800000000000000000000000000000,
000000000000100000000000100000000000000000000000,
100000000000000000000000100000000000000000000000,
600000000000000000000000000000000000000000000000,
000000000000000000000000000000000000000000000080,
000000000000000000000000000000000000000000000000,
100000000000000000000000100000000000000000000000,
#GOGOSTART
100000000000000000000000100000000000000000100000,
000000000000100000000000100000000000000000000000,
100000000000000000000000200000000000000000100000,
000000000000100000000000100000000000000000000000,
100000000000000000000000100000000000000000100000,
000000000000100000000000100000000000000000000000,
300000000000000000000000300000000000000000300000,
000000000000300000000000300000000000000000000000,
100000000000000000000000100000000000000000100000,
000000000000100000000000100000000000000000000000,
100000000000000000000000200000000000000000100000,
000000000000100000000000100000000000000000000000,
100000000000000000000000100000000000000000100000,
000000000000100000000000100000000000000000000000,
300000000000000000000000300000000000000000000000,
300000000000000000000000400000000000000000000000,
500000000000000000000000000000000000000000000000,
000000000000000000000000000080000000000000000000,
#GOGOEND
100000000000000000000000100000000000000000000000,
100000000000000000000000000000000000000000000000,
100000000000000000000000200000000000000000000000,
100000000000000000000000100000000000000000000000,
100000000000100000000000100000000000000000000000,
100000000000000000000000000000000000000000000000,
900000000000000000000000000000000000000000000000,
000000000000000000000000000000000000000000000000,
000000000000000000000000000000000000000000800000,
000000000000000000000000000000000000000000000000,
100000000000000000000000100000000000000000000000,
100000000000000000000000100000000000000000000000,
100000000000000000000000000000000000000000000000,
200000000000000000000000200000000000000000000000,
000000000000000000000000100000000000000000000000,
#GOGOSTART
100000000000000000000000100000000000000000100000,
000000000000100000000000100000000000000000000000,
100000000000000000000000200000000000000000100000,
000000000000100000000000100000000000000000000000,
100000000000000000000000100000000000000000100000,
000000000000100000000000100000000000000000000000,
300000000000000000000000300000000000000000300000,
000000000000300000000000300000000000000000000000,
#GOGOEND
100000000000
#GOGOSTART
000000000000100000000000000000100000,
000000000000100000000000100000000000000000000000,
100000000000000000200000000000000000000000100000,
000000000000100000000000100000000000000000000000,
100000000000000000000000100000000000000000100000,
000000000000100000000000100000000000000000000000,
300000000000000000000000400000000000000000000000,
300000000000000000000000300000000000000000000000,
900000000000000000000000000000000000000000000000,
000000000000000000000000000000000000000000800000,
000000000000000000000000000000000000000000000000,
000000000000000000000000000000000000000000000000,
100000000000000000000000100000000000000000000000,
100000000000000000000000000000000000000000000000,
300000000000000000000000300000000000000000500000,
000000000000000000000000000080000000000000000000,
#GOGOEND
100000000000000000000000000000000000000000000000,
000000600000000000000000000000000000000000000080,
#END
