//TJADB Project
TITLE:Koi wa Don’t Doubt
TITLEJA:恋はドント・ダウト
SUBTITLE:--Kawagen Collagen feat. yuzuki
SUBTITLEJA:太鼓 de タイムトラベル70's / Kawagen Kollagen with yuzuki
BPM:180
WAVE:Koi wa Dont Doubt.ogg
OFFSET:-1.516
DEMOSTART:65.507

COURSE:Oni
LEVEL:8
BALLOON:20
SCOREINIT:410
SCOREDIFF:103
#START
300000000000100010002000200000001000000000000000,
300000000000200020001000100000001000000000000000,
300000000000100010002000200000001000000000000000,
300000000000200020002000200000001000000000000000,
100000001000200000002000100000001000200000002000,
100000001000200000002000100000001000200000002000,
100010001000100010001000100010001000100010001000,
300000000000200020002000200020002000100000000000,
100000002000100000002000100000001000200000001000,
200000002000100000002000100000001000200000002000,
100000000000200000000000200000000000000000001000,
200000002000000000002000000000000000000000000000,
100000001000200000000000100000000000200000001000,
200000002000100000002000100000001000200000002000,
100000000000200000000000200000000000000000001000,
200000002000000000002000000000000000000000000000,
100000000000200000000000100000000000200000000000,
100000001000200000001000100000002000100000000000,
100000000000200000000000100000000000200000000000,
100000001000200000001000000000002000000000001000,
100000000000200000000000100000000000200000000000,
100000000000200000000000100000000000200020002000,
200000000000300000000000200000000000300000000000,
200000002000100000002000000000002000200000000000,
100000001000200000001000200000002000200000001000,
200000002000200000000000200000002000100000002000,
100000000000200000000000200000000000000000001000,
200000002000000000002000000000000000000000000000,
100000001000200000002000100000001000200000001000,
200000002000100000002000100000001000100000002000,
100000000000200000000000200000000000000000001000,
200000002000000000002000000000000000000000000000,
100000000000200000000000100000000000200000000000,
100000001000200000001000100000002000100000000000,
100000000000200000000000100000000000200000000000,
100000001000200000001000000000002000000000001000,
100000000000200000000000100000000000200000000000,
300000000000300000000000200020002000200000000000,
100000000000200000000000100000001000200020002000,
100000002000000000002000000000002000200020002000,
400000000000200000002000200000004000000000003000,
000000001000100000002000100000001000100000000000,
400000000000200000000000200000004000000000003000,
000000002000100000002000100000001000100000000000,
400000000000200000000000200000004000200020002000,
400000000000200000000000200000004000200010001000,
100000002000000020000000100000002000200020000000,
100000002000100000002000100000002000200020002000,
#GOGOSTART
100000000000100000000000100000000000100000000000,
200000000000200000002000100000002000200000002000,
100000000000200000002000100000002000200000002000,
100000002000100000000000100000002000200000000000,
100000002000100010001000200000002000100000000000,
100000001000200000000000200000001000100000002000,
100000001000200020002000100000001000200020002000,
100000002000000000002000000000002000200020002000,
100000000000100000002000100000000000100000002000,
100000000000200000002000100000002000200000002000,
100000000000200000002000100000002000000000002000,
100000002000200000000000200000001000100000002000,
100000001000200020002000100000002000000020000000,
100000001000200020002000100000002000100000002000,
100010001000200020002000100010001000200020002000,
300000000000200000000000200000000000200000000000,
#GOGOEND
300000000000100010002000200000001000000000000000,
300000000000200020001000100000001000000000000000,
300000000000100010002000200000001000000000000000,
300000000000200020002000200000001000000000000000,
100000001000200000002000100000001000200000002000,
100000001000200000002000100000001000200000002000,
200020002000200020002000200020002000200020002000,
100010001000100010001000100010001000100010001000,
400000000000200000000000200000004000000000003000,
000000002000100000002000100000001000100000000000,
400000000000200000000000200000004000000000003000,
000000002000100000002000100000001000100000000000,
300000000000200000000000200000002000200020002000,
100000000000200000000000200000002000200020002000,
200000002000100010000000200000002000100010000000,
100000002000100000002000100000002000200020002000,
700000000000000000000000000000000000000000000000,
000000000000800000000000000000000000000000000000,
100000000000200000000000000000002000000020000000,
100000000000200000000000000000002000000020000000,
100000000000200000000000000000002000000020000000,
100000000000200000000000000000002000000000000000,
200000000000000000000000000000002000000000000000,
200000003000000000000000300000002000000000000000,
200000003000000000000000300000000000000000000000,
200020002000200020002000200020002000200020002000,
100010001000100010001000100010001000100010001000,
#GOGOSTART
100000000000100000000000100000000000100000000000,
200000000000200000002000100000002000200000000000,
100000000000200000002000100000002000200000001000,
200000002000100000000000100000002000200000000000,
100000002000100010001000200000001000000000000000,
100000001000200000000000200000001000100000002000,
300000000000400000002000300000000000200020002000,
200000002000000000002000000000002000200000000000,
100000000000200000002000100000000000100000002000,
100000000000200000002000100000002000200000002000,
100000000000200000002000100000002000000000002000,
100000002000100000002000200000001000200000000000,
100000002000000000000000200000001000000000000000,
100000002000100010001000200000001000000000001000,
#GOGOEND
300000000000100010002000200000001000000000000000,
300000000000200020001000100000001000000000000000,
300000000000100010002000200000001000000000000000,
300000000000200020002000200000001000000000000000,
100000001000200000002000100000001000200000002000,
100000001000200000002000100000001000200000000000,
200020002000200020002000200020002000200020002000,
100010001000100010001000100010001000100010001000,
200020002000200020002000100010001000100010001000,
200020002000100010001000200020002000100010001000,
300000000000100010002000400000000000200020002000,
200000000000300000000000000000000000000000000000,
#END

COURSE:Hard
LEVEL:6
BALLOON:20,4,4,4,4,4
SCOREINIT:450
SCOREDIFF:103
#START
300000000000200020002000200000001000000000000000,
300000000000200020002000200000001000000000000000,
300000000000200020002000200000001000000000000000,
300000000000200020002000200000001000000000000000,
100000002000200000000000100000002000200000000000,
100000002000200000000000100000002000200000000000,
600000000000000000000000000000000008000000000000,
300000000000000000000000000000000000000000000000,
100000001000100000001000100000000000100000000000,
200000002000200000002000200000000000200000000000,
000000000000200000000000200000000000000000002000,
200000002000000000002000000000000000000000000000,
100000001000100000000000100000000000100000000000,
200000000000200000002000200000002000200000000000,
000000000000200000000000200000000000000000002000,
200000002000000000002000000000000000000000000000,
100000000000200000000000100000000000200000000000,
100000001000000000001000000000002000200000000000,
100000000000200000000000100000000000200000000000,
100000001000000000001000000000002000000000001000,
100000000000200000000000100000000000200000000000,
100000000000200000000000100000000000200000002000,
200000000000300000000000200000000000300000000000,
100000001000000000001000000000002000200000000000,
100000001000100000001000100000000000100000000000,
200000002000200000000000200000002000200000000000,
000000000000200000000000200000000000000000002000,
200000002000000000002000000000000000000000000000,
100000001000100000001000100000000000100000000000,
200000002000200000002000200000000000200000000000,
000000000000200000000000200000000000000000002000,
200000002000000000002000000000000000000000000000,
100000000000200000000000100000000000200000000000,
100000001000000000001000000000002000200000000000,
100000000000200000000000100000000000200000000000,
100000001000000000001000000000002000000000001000,
100000000000200000000000100000000000200000000000,
300000000000300000000000200000002000200000000000,
100000000000200000000000100000000000200000000000,
100000002000000000002000000000002000200000000000,
400000000000200000000000200000004000000000003000,
000000000000100000000000100000003000000000000000,
400000000000200000000000200000004000000000003000,
000000000000100000000000100000003000000000000000,
400000000000200000000000200000004000000000000000,
400000000000200000000000200000004000000000000000,
100000002000000020000000100000002000000020000000,
100000001000100000002000200000001000100000000000,
#GOGOSTART
100000000000100000000000100000000000100000000000,
200000000000200000000000100000002000200000000000,
100000000000200000000000100000002000200000001000,
000000001000100000000000200000002000200000000000,
100000002000000000000000200000001000000000000000,
100000002000200000000000100000000000200000000000,
300000000000400000000000300000000000400000000000,
200000002000000000002000000000002000200000000000,
100000000000100000000000100000000000100000000000,
100000000000200000000000100000002000200000000000,
100000000000100000000000100000001000000000002000,
000000002000200000000000200000001000100000000000,
100000002000200020002000200000001000000010000000,
100000002000200020002000200000001000000000001000,
100000000000200000000000100010001000100000000000,
300000000000200000000000200000000000200000000000,
#GOGOEND
300000000000200020002000200000001000000000000000,
300000000000200020002000200000001000000000000000,
300000000000200020002000200000001000000000000000,
300000000000200020002000200000001000000000000000,
100000002000200000000000100000002000200000000000,
100000002000200000000000100000002000200000000000,
500000000000000000000000000000000008000000000000,
600000000000000000000000000000000008000000000000,
400000000000200000000000200000004000000000003000,
000000001000100000001000000000001000100000000000,
400000000000200000000000200000004000000000003000,
000000001000000000001000000000001000100000000000,
400000000000200000000000200000002000200020002000,
200000000000200000000000200000004000000000000000,
200000001000100010000000200000001000100010000000,
700000000000000000000000000000000000000000000000,
0,
000000800000000000000000000000000000000000000000,
100000000000200000000000000000002000000020000000,
100000000000200000000000000000002000000020000000,
100000000000200000000000000000002000000020000000,
100000000000200000000000000000002000000000000000,
200000000000000000000000000000002000000000000000,
200000003000000000000000300000002000000000000000,
200000003000000000000000300000000000000050000000,
000000000000000000000000000000000000000800000000,
600000000000000000000000000008000000000000000000,
#GOGOSTART
100000000000100000000000100000000000100000000000,
200000000000200000000000100000002000200000000000,
100000000000200000000000100000002000200000001000,
000000001000100000000000200000002000200000000000,
100000002000000000000000200000001000000000000000,
100000002000200000000000100000000000200000000000,
300000000000400000000000300000000000200020002000,
200000002000000000002000000000002000200000000000,
100000000000200000000000100000000000100000000000,
100000000000200000000000100000002000200000000000,
100000000000100000000000100000001000000000002000,
000000002000200000000000200000001000100000000000,
100000002000000000000000200000001000000000000000,
100000002000200000000000200000001000000000000000,
#GOGOEND
300000000000200020002000200000001000000000000000,
300000000000200020002000200000001000000000000000,
300000000000200020002000200000001000000000000000,
300000000000200020002000200000001000000000000000,
100000002000200000000000100000002000200000000000,
100000002000200000000000100000002000200000000000,
700000000000800000000000100000000000100000000000,
700000000000800000000000100000000000100000000000,
700000000000800000000000100000000000100000000000,
700000000000800000000000700000000000800000000000,
300000000000200000000000300000000000200020002000,
200000000000300000000000000000000000000000000000,
0,
0,
0,
#END

COURSE:Normal
LEVEL:5
BALLOON:20,5,5,5,5
SCOREINIT:570
SCOREDIFF:148
#START
300000000000000000000000000000001000000000000000,
300000000000000000000000000000001000000000000000,
300000000000000000000000000000001000000000000000,
300000000000000000000000000000001000000000000000,
100000000000200000000000100000000000200000000000,
300000000000400000000000300000000000400000000000,
600000000000000000000000000000000008000000000000,
300000000000000000000000000000000000000000000000,
100000000000200000000000100000000000200000000000,
100000000000100000000000100000000000200000000000,
000000000000200000000000200000000000000000000000,
200000002000000000002000000000000000000000000000,
100000000000200000000000100000000000200000000000,
100000000000100000000000100000000000200000000000,
000000000000200000000000200000000000000000000000,
200000002000000000002000000000000000000000000000,
000000000000100000000000100000000000200000000000,
100000001000000000005000000000000000000000080000,
000000000000100000000000100000000000200000000000,
100000000000000000005000000000000000080000000000,
000000000000100000000000100000000000200000000000,
100000000000200000000000100000000000200000002000,
000000000000300000000000000000000000300000000000,
100000001000000000001000000000000000000000000000,
100000000000200000000000100000000000200000000000,
100000000000100000000000100000000000200000000000,
000000000000200000000000200000000000000000000000,
200000002000000000002000000000000000000000000000,
100000000000200000000000100000000000200000000000,
100000000000100000000000100000000000200000000000,
000000000000200000000000200000000000000000000000,
200000002000000000002000000000000000000000000000,
000000000000100000000000100000000000200000000000,
100000001000000000005000000000000000080000000000,
000000000000100000000000100000000000200000000000,
100000000000000000005000000000000000080000000000,
000000000000100000000000100000000000200000000000,
300000000000300000000000000000000000000000000000,
100000000000200000000000100000000000200000000000,
100000001000000000001000000000000000000000000000,
400000000000000000000000000000004000000000003000,
000000000000000000000000000000003000000000000000,
400000000000000000000000000000004000000000003000,
000000000000000000000000000000003000000000000000,
400000000000000000000000000000004000000000000000,
400000000000000000000000000000004000000000000000,
300000000000000000000000300000000000000000000000,
100000001000000000001000000000001000000000000000,
#GOGOSTART
100000000000100000000000100000000000100000000000,
200000000000200000000000100000000000200000000000,
100000000000100000000000100000001000000000005000,
000000000008000000000000000000001000000000000000,
100000000000000000000000000000001000000000000000,
100000000000200000000000100000000000200000005000,
000000000000000000000000000000000000000008000000,
200000002000000000002000000000002000000000000000,
100000000000100000000000100000000000100000000000,
100000000000200000000000100000000000200000000000,
100000000000100000000000100000001000000000005000,
000000000000080000000000000000001000000000000000,
100000000000000000000000000000001000000000000000,
100000000000200000000000100000001000000000005000,
000000000000000000000000000000000000000000000008,
000000000000200000000000200000000000200000000000,
#GOGOEND
300000000000000000000000000000001000000000000000,
300000000000000000000000000000001000000000000000,
300000000000000000000000000000001000000000000000,
300000000000000000000000000000001000000000000000,
100000000000200000000000100000000000200000000000,
100000000000200000000000100000000000200000000000,
500000000000000000000000000000000008000000000000,
600000000000000000000000000000000008000000000000,
000000000000200000000000200000002000000000001000,
000000000000100000001000000000000000000000000000,
000000000000200000000000200000002000000000001000,
000000001000000000001000000000000000000000000000,
000000000000200000000000200000000000000000000000,
000000000000200000000000200000000000000000000000,
100000001000000000000000100000001000000000000000,
700000000000000000000000000000000000000000000000,
0,
000000800000000000000000000000000000000000000000,
100000000000200000000000000000002000000000000000,
100000000000200000000000000000002000000000000000,
100000000000200000000000000000002000000000000000,
100000000000200000000000000000002000000000000000,
200000000000000000000000000000002000000000000000,
200000000000000000000000000000002000000000000000,
200000002000000000002000000000005000000000000000,
000000000000000000000000000000000000000800000000,
600000000000000000000000000008000000000000000000,
#GOGOSTART
100000000000100000000000100000000000100000000000,
200000000000200000000000100000000000200000000000,
100000000000100000000000100000001000000000005000,
000000000008000000000000000000001000000000000000,
100000000000000000000000000000001000000000000000,
100000000000200000000000100000000000200000005000,
000000000000000000000000000000000000000008000000,
200000002000000000002000000000002000000000000000,
100000000000200000000000100000000000100000000000,
100000000000200000000000100000000000200000000000,
100000000000100000000000100000001000000000005000,
000000000008000000000000000000001000000000000000,
100000000000000000000000000000001000000000000000,
100000000000200000000000100000001000000000000000,
#GOGOEND
300000000000000000000000000000001000000000000000,
300000000000000000000000000000001000000000000000,
300000000000000000000000000000001000000000000000,
300000000000000000000000000000001000000000000000,
100000000000200000000000100000000000200000000000,
100000000000200000000000100000000000200000000000,
700000000000000000000000800000000000000000000000,
700000000000000000000000800000000000000000000000,
700000000000000000000000800000000000000000000000,
700000000000000000000000800000000000000000000000,
300000000000200000000000300000000000200000000000,
000000000000300000000000000000000000000000000000,
0,
0,
0,
#END

COURSE:Easy
LEVEL:4
BALLOON:20,5,5,5,5
SCOREINIT:530
SCOREDIFF:145
#START
300000000000000000000000000000000000000000000000,
300000000000000000000000000000000000000000000000,
300000000000000000000000000000000000000000000000,
300000000000000000000000000000000000000000000000,
000000000000200000000000000000000000200000000000,
000000000000200000000000000000000000200000000000,
500000000000000000000000000000000000000000000008,
0,
100000000000000000000000100000000000000000000000,
100000000000100000000000100000000000000000000000,
000000000000200000000000200000000000000000000000,
200000000000000000000000000000000000000000000000,
100000000000000000000000100000000000000000000000,
100000000000100000000000100000000000000000000000,
000000000000200000000000200000000000000000000000,
200000000000000000000000000000000000000000000000,
000000000000100000000000100000000000000000000000,
100000000000000000005000000000000000000000080000,
000000000000100000000000100000000000000000000000,
100000000000000000005000000000000000080000000000,
000000000000100000000000100000000000100000000000,
100000000000000000000000100000000000000000000000,
000000000000300000000000000000000000300000000000,
300000000000000000003000000000000000000000000000,
100000000000000000000000100000000000000000000000,
100000000000100000000000100000000000000000000000,
000000000000200000000000200000000000000000000000,
200000000000000000000000000000000000000000000000,
100000000000000000000000100000000000000000000000,
100000000000100000000000100000000000000000000000,
000000000000200000000000200000000000000000000000,
200000000000000000000000000000000000000000000000,
000000000000100000000000100000000000000000000000,
100000000000000000001000000000000000000000000000,
000000000000100000000000100000000000100000000000,
100000000000000000001000000000000000000000000000,
000000000000100000000000100000000000000000000000,
300000000000300000000000000000000000000000000000,
100000000000000000000000200000000000000000000000,
100000000000000000001000000000000000000000000000,
100000000000000000000000000000001000000000001000,
000000000000000000000000000000001000000000000000,
100000000000000000000000000000001000000000001000,
000000000000000000000000000000001000000000000000,
100000000000000000000000000000001000000000000000,
100000000000000000000000000000001000000000000000,
100000000000000000000000100000000000000000000000,
500000000000000000000008000000000000000000000000,
#GOGOSTART
100000000000100000000000100000000000100000000000,
100000000000000000000000100000000000000000000000,
100000000000100000000000100000000000000000005000,
000000000008000000000000000000001000000000000000,
100000000000000000000000000000001000000000000000,
100000000000100000000000100000000000000000005000,
000000000000000000000000000000000000000000000008,
0,
100000000000100000000000100000000000100000000000,
100000000000000000000000100000000000000000000000,
100000000000100000000000100000000000000000005000,
000000000000080000000000000000001000000000000000,
100000000000000000000000000000001000000000000000,
100000000000000000000000100000000000000000005000,
000000000000000000000000000000000000000000000008,
0,
#GOGOEND
300000000000000000000000000000000000000000000000,
300000000000000000000000000000000000000000000000,
300000000000000000000000000000000000000000000000,
300000000000000000000000000000000000000000000000,
000000000000200000000000000000000000200000000000,
000000000000200000000000000000000000200000000000,
500000000000000000000000000000000000000000000000,
000000000000000000000000000000000000000008000000,
000000000000100000000000100000000000000000005000,
000000000000000000000000000000000000000008000000,
000000000000100000000000100000000000000000005000,
000000000000000000000000000000000000000008000000,
000000000000100000000000100000000000000000000000,
000000000000200000000000200000000000000000000000,
100000000000000000000000100000000000000000000000,
700000000000000000000000000000000000000000000000,
0,
000000000000000000000000000000000000800000000000,
200000000000200000000000000000002000000000000000,
200000000000200000000000000000002000000000000000,
200000000000200000000000000000002000000000000000,
200000000000200000000000000000002000000000000000,
200000000000000000000000000000002000000000000000,
200000000000000000000000000000002000000000000000,
200000000000000000000000000000005000000000000000,
000000000000000000000000000000000000000008000000,
600000000000000000000000000008000000000000000000,
#GOGOSTART
100000000000100000000000100000000000100000000000,
100000000000000000000000100000000000000000000000,
100000000000100000000000100000000000000000005000,
000000000008000000000000000000001000000000000000,
100000000000000000000000000000001000000000000000,
100000000000000000000000100000000000000000005000,
000000000000000000000000000000000000000000000008,
0,
100000000000100000000000100000000000100000000000,
100000000000000000000000100000000000000000000000,
100000000000100000000000100000000000000000005000,
000000000008000000000000000000001000000000000000,
100000000000000000000000000000001000000000000000,
100000000000000000000000100000000000000000000000,
#GOGOEND
300000000000000000000000000000000000000000000000,
300000000000000000000000000000000000000000000000,
300000000000000000000000000000000000000000000000,
300000000000000000000000000000000000000000000000,
000000000000200000000000000000000000200000000000,
000000000000200000000000000000000000200000000000,
700000000000000000000000000000000000800000000000,
700000000000000000000000000000000000800000000000,
700000000000000000000000000000000000800000000000,
700000000000000000000000000000000000800000000000,
300000000000000000000000300000000000000000000000,
000000000000300000000000000000000000000000000000,
0,
0,
0,
#END
