//TJADB Project
TITLE:Chimimouryou
TITLEJA:魑魅魍魎
SUBTITLE:--Laur
SUBTITLEJA:Laur
BPM:200
WAVE:Chimimouryou.ogg
OFFSET:-2.570
DEMOSTART:103.913

COURSE:Oni
LEVEL:10
BALLOON:2,2,4
SCOREINIT:920
SCOREDIFF:0
#START
100000000000000000200000100000000000200000200000,
100000100200100000200200100000000000100000200000,
100000000000200000000000100000200200100000200000,
100000100000200000000000200000000000100000200000,
200000000000100000200000200000000000200000100000,
200000200200100000200000100000000000200000100000,
200000000000200000100000200000200000100000200000,
100000200200100000200000100000000000100000000000,
300000000000100000200000100000000000100000200000,
100000000000100000200000100000100100200000100000,
101010100000100000200000100100100000100000100100,
200000100000100100100000100000200000100100200200,
100100100200100100100200100100100200700000800000,
100100200200100100200200100100200200700000800000,
100200100200100200100200100100100100100100100100,
101010001000101010001000101010001000100000000000,
400000000000200200200200200200100100100100100100,
100000100000200000100000101010100000200200202010,
100000100100100020100000100000200020102020200200,
100200200200100000100000300000200200100010200000,
100010200020100020200020100000200000100200202020,
100000200020100020100000300000200000102020202000,
100000200000100200202020100010100020200020002000,
100020200020100100100000300000202020102020201010,
100000100100100000100200102000202020100000200010,
100000200000100010001000200000100000200000000000300000000000200020000000000020002000000000000000,
100010002020100010002000100010002020100020001000,
102010002000100010001000100020001000100020202000,
100020001000101010002000100010002000100010001000,
100020202000200020202000100020002000100020001000,
100010201000100010002000100010002020100010002000,
102010002000100010001000100020001000100020201000,
400000100000000000200200200000000000000000000000,
200000000000200000000000100000100200100100200000,
100000100000200000100000200000100000200000100000,
101010200000101010200000101010100000200000200000,
100000100000200000100000200000100000200000200000,
300000000000100100100100200000100100100000000000,
200000000000200000000000200000100100200000200000,
200000000000200000000000200000100000200020002000,
200000000000200000000000200000100100200000200000,
300000000300000000300000700000000000800000000000,
#MEASURE 8/4
#BPMCHANGE 260
#SCROLL 0.5
300000000000000000000000000000000000000000000000000000000000000000000000000000000000000000000000,
000000000000000000000000000000000000000000000000000000000000000000000000000000000000000000000000,
100000000000100000100000000000100000100000000000100000100000000000100000100000000000100010001000,
100000000000200200200200200200200200200200100100100100100100200200100100100100100100200000000000,
100000100000000000100000200000000000100100100000000000100100100000100000200010001000100100100100,
100000100000000000100000200000000000100100100000000000100100100000100000200100100100200000000000,
100000100000000000100000200000000000100100100000000000100100100000100000200000100000100100100100,
100000100000000000100000200000000000100100100000000000100100100000100000100020002000100020002000,
100000000000000000000000200000200000200000200000000000100000100000100000200100100000100000100000,
200000100000100000100100200100000000100000001000000010001000100000001000200000000000000000000000,
100000001000000020000000100000001000000020000000100000100000200000100000500000000000000008000000,
200010001000200010001000200100100100200100100100200200100100200100100100200100100100200000000000,
#MEASURE 4/4
#BPMCHANGE 200
#SCROLL 0.75
200000000000000000100000200000200200200000200000,
200000000000200000100100100000200200200000200000,
100000000000000000100000200000100100200000200000,
100000200000000000100200100000000000200000200200,
100000000000000000100000000200100000100000200200,
100000000000100000200000000000200200200000500000,
000000000000000000000008000000100000100000200000,
100200100000000000100200100000000000100200100000,
#SCROLL 1
100000000000100000000000100000100200100000200000,
100000000000100000000000100000100200100000100000,
200000100100200000200000100000200100200000000000,
200200100000100000200000100000100200100000100000,
#SCROLL 1.1
100000100000100000100000100000100200100000200000,
#SCROLL 1.2
100000100000100000100000200000100000100200100000,
#SCROLL 1.3
100100100100100100100100500000000000000000000008,
#SCROLL 1
000000000000000000000000100000100200100000100100,
100020200020100020100100100200102000102020202000,
10102000102012101010202010111100,
100000100100200200100200100000202020102020202020,
100000000000100000100000200000200000100000200000200020002000200200200000100000100000200000200000,
100200100200100200100200100200100200500008000000,
100000200000100200000100200000100200000100200000,
100100100200100100100100500000000000000000000008,
000000000000000000000000200000100200000100200000,
#GOGOSTART
100000100200100100200000100000200200102020100000,
100000200100200200100000200000100100201010200000,
100000200100200000100000100000100100200000100100,
200100200000200000100000100000100000200100200000,
100000200200200100200200200200100000200100101010,
200000101010200000300000000000400000000000300000,
000000100100100100100100100200100000100000200100,
200000100200200000400000000000100100200200102020,
100000000000100000000000100100200200102010100000,
100000000000100000000000100100200200102010100100,
200000100100200100200000100100200100200000100200,
200000200000100000200000100000100100200100101010,
100000100000100000100000100000100200200100200100,
100000100000100000100000200100200100200000100100,
200200100100100200200100100100100200500000000000,
000000000000000000000000000000000008000000000000,
#GOGOEND
#MEASURE 8/4
#BPMCHANGE 260
#SCROLL 0.5
400000000000000000000000100000100100200000100000000100100000100100100000200000100000100100100100,
100100100000100100100000200000100100100000100000000100100000100100100000200000100100200000000000,
300000000000000000000000200000100000100000200000100000200000100000100000200100100000100000100000,
000000100000100000100100200100000000100000001000000010001000100000001000200000000000000000000000,
500000000000000000000000000000000000000000000000000000000000000000000000000000000000000000000000,
000000000000000000000000000000000008000000000000200010001000100010002000101000000000100000000000,
300000000000000000000000000000000000000000000000000000000000000000000000000000000000000000000000,
#END

COURSE:Hard
LEVEL:7
BALLOON:8,8,18,6,7,7,7,9
SCOREINIT:1810
SCOREDIFF:0
#START
10021022,
1011102010002020,
1000200010111020,
11202012,
20122021,
2022202010002010,
20212212,
12121000,
30001012,
1000102010111000,
30121011,
2020222010101000,
70000008,
70000008,
9,
09,
8,
20202220,
1011101010201010,
1110102030000020,
1020202010201110,
12213222,
100000100000100100100000100000200000100000001000,
12113000,
1011102020201020,
1110222030000000,
101102200101,
101102200101,
101102200101,
102202200201,
101102200101,
101102200100,
4010002220000000,
20202201,
10101122,
10111120,
10112211,
3000111110001000,
20202022,
200200200222,
20202022,
7008,
#MEASURE 8/4
#BPMCHANGE 260
#SCROLL 0.5
3,
,
1011011010011010,
500000000000000000000000000000000000000008000000,
1101101101112010,
1101101101102000,
1101101101112010,
1101101101102020,
1000201101102010,
2010101101102000,
111111700000,
8,
#MEASURE 4/4
#BPMCHANGE 200
#SCROLL 0.75
2,
2,
2,
20020000,
20020000,
20020202,
00000202,
20020020,
#SCROLL 1
10101012,
10102012,
10121210,
1020102000111020,
#SCROLL 1.1
1010102010111020,
#SCROLL 1.2
1010102010101110,
#SCROLL 1.3
500000000000000000000000000000000000000000000008,
#SCROLL 1
,
1020201110202020,
1010011010202020,
11111022,
1010101020202220,
70000008,
70000008,
500000000000000000000000000000000000000000000008,
,
#GOGOSTART
1011102000222010,
1011101000111020,
1011101000111020,
1010202000102220,
0011101020201110,
11230306,
000000000000000000000008000000000000200000000000,
1001104000102020,
1000100010222010,
1000100010222010,
1011101011101020,
11210122,
1000100010111010,
1000100010111010,
9,
0098,
#GOGOEND
#MEASURE 8/4
#BPMCHANGE 260
#SCROLL 0.5
4000101101112010,
1101101101121020,
3000201101112011,
000100100000200000100010001000100010100000000000,
5,
000000000000000000000008000000000000000000000000,
3,
,
#END

COURSE:Normal
LEVEL:6
BALLOON:6,6,14,5,6,6,6,6,7
SCOREINIT:3020
SCOREDIFF:0
#START
1022,
1210,
1212,
1220,
2211,
2210,
2212,
1110,
31,
1111,
30101110,
10111010,
70000008,
70000008,
9,
09,
8,
2022,
11101020,
10113000,
1211,
10113000,
10111020,
11113000,
11101020,
11113000,
100100200101,
100100200101,
100100200101,
100200200201,
100100200101,
1121,
4,
20202200,
10101011,
1112,
10101011,
30111000,
20202022,
2222,
20202022,
7008,
#MEASURE 8/4
#BPMCHANGE 260
#SCROLL 0.5
3,
,
1011,
500000000000000000000000000000000000000008000000,
1002001001001000,
1002001001001000,
1002001001001000,
1002001001001000,
1002001101101000,
1002001101101000,
1170,
8,
#MEASURE 4/4
#BPMCHANGE 200
#SCROLL 0.75
2,
,
2,
2,
2,
20020207,
08,
20020020,
#SCROLL 1
1011,
1011,
10010010,
10110000,
#SCROLL 1.1
1111,
#SCROLL 1.2
1111,
#SCROLL 1.3
500000000000000000000000000000000000000000000008,
#SCROLL 1
,
10111020,
11011110,
11101010,
11101010,
70000008,
70000008,
500000000000000000000000000000000000000000000008,
,
#GOGOSTART
1001001000202000,
1001001000101000,
1001001000101000,
10110111,
01102011,
10130306,
000000000000000000000008000000000000000000000000,
10240020,
10201110,
10201110,
10110110,
10110220,
10101011,
1111,
9,
0098,
#GOGOEND
#MEASURE 8/4
#BPMCHANGE 260
#SCROLL 0.5
3000201001001010,
1000201001001010,
3000201001001010,
1000201001001000,
5,
000000000000000000000008000000000000000000000000,
3,
,
#END

COURSE:Easy
LEVEL:4
BALLOON:5,5,12,4,5,7,5,5,5
SCOREINIT:5080
SCOREDIFF:0
#START
12,
1110,
12,
1110,
22,
1110,
22,
1110,
3,
11,
3011,
1110,
70000008,
70000008,
9,
09,
8,
22,
1110,
1130,
11,
1130,
1110,
1130,
1111,
1130,
1022,
0022,
0022,
0011,
0022,
0022,
4,
22,
1111,
12,
1111,
31,
2022,
22,
2022,
7008,
#MEASURE 8/4
#BPMCHANGE 260
#SCROLL 0.5
3,
,
11,
500000000000000000000000000000000000000008000000,
10010000,
10010000,
10010000,
10010000,
10020010,
10020010,
1170,
8,
#MEASURE 4/4
#BPMCHANGE 200
#SCROLL 0.75
2,
,
2,
,
2,
20000007,
08,
,
#SCROLL 1
1011,
1011,
10010010,
10010000,
#SCROLL 1.1
1110,
#SCROLL 1.2
1110,
#SCROLL 1.3
500000000000000000000000000000000000000000000008,
#SCROLL 1
,
1110,
21,
1110,
1110,
70000008,
70000008,
500000000000000000000000000000000000000000000008,
,
#GOGOSTART
10020010,
10010010,
10020010,
10010101,
0110,
10030306,
000000000000000000000008000000000000000000000000,
10020000,
1011,
1011,
10010010,
10010010,
1111,
1111,
7,
0008,
#GOGOEND
#MEASURE 8/4
#BPMCHANGE 260
#SCROLL 0.5
30010010,
10010010,
30010010,
10010010,
5,
000000000000000000000008000000000000000000000000,
3,
#END
