//TJADB Project
TITLE:†Bachi! Muchi⁉ Muscle Kingdom†
TITLEJA:†バチ!ムチ!?マッスルキングダム†
SUBTITLE:--Yuuma Mizonokuchi feat. Ai Oosera♡Marumoko
SUBTITLEJA:溝口ゆうま feat. 大瀬良あい♡まるもこ
BPM:130
WAVE:†Bachi! Muchi! Muscle Kingdom†.ogg
OFFSET:-2.021
DEMOSTART:60.199

COURSE:Oni
LEVEL:10
BALLOON:15,10,6,2,2,2,2,2,2,2,2,2
SCOREINIT:1040
SCOREDIFF:0
#START
100000000000100000200100200000000000200000100200,
100020102010200100200100200000000000100000200000,
100000000000100000200100200000000200100000200000,
100000102010200100200100200000000000200000100000,
#MEASURE 8/4
000000000000000000000000000000000000700000000000
#BPMCHANGE 220
000000000000000000000000000000800000000000101010,
#GOGOSTART
#MEASURE 4/4
100000100100200000100100100000100100200000100000,
#GOGOEND
200000200200200100100100200200100100200000000000,
#GOGOSTART
100000100100200000100100100000100100200000100000,
#GOGOEND
200000100100200000100100200100100100200000000000,
#GOGOSTART
300000000000100000200000100100200200100000200000,
100000100200100000200000100100200000100000200200,
100000000100200000100000000100000000200000000100,
000000100000200100000000100000000100200000100000,
202020200200200000200000100000200000200000200000,
100000202020200000200000100000200000300000000000,
#GOGOEND
100000000000200000000100100200100000100000200000,
100100200000100100200000000000100000200000100100,
100000100200100200100000200000100100200100100000,
100100100200100200100100200200200200200200200200,
100000200000100100200000100200200000100100200000,
100000200000100100200000100200200000100000300000,
000000100000100000200000100100100000200000100000,
000000200000200000000000101010101010200000000000,
100000000000200000000000100200100000200000100100,
100000200100200000200000100000200000200000100000,
100000200100200000100000200000200100200000100000,
#BPMCHANGE 160.5
#SCROLL 1.1
100000200000200000200100200000200000200000100000200000200000200100200000200000200000,
#MEASURE 4/4
#BPMCHANGE 220
#SCROLL 1
100000000000200000100000200200100100200000100000,
200000100000200100000100200200100100200000100000,
200010001000200000001000200020001000200010001000,
200020001000200010001000201010100000400000000000,
#MEASURE 6/4
202020200200200000200000100000200000200000200000100000000000100000000000,
#MEASURE 4/4
101000200000101000200000100000100010000000100000,
400000101000200000101000100000200000100000000000,
400000400000400000100000101000200000101000100000,
200100200100200000101000200000000000100000000000,
200000000000000000000000100100100100200200200200,
101010001000202000202000100000000000200000000000,
101010100010001000200000101010100100100000200000,
7008,
100200100100200000200000100200100100200000100000,
000000200000100100200000100000202000202000000000,
100200100100200000200000100200100100200000100000,
000000200000100100200000100000000000202000000000,
100100100000200000100200100000100100200000100000,
000000200000100100200000300000000000202020200000,
100200100100200100200000100200100100200200100000,
000000100000100200100200100000000000202000000000,
#GOGOSTART
100100100100200000200200100100100100200000200200,
101010100000101010100000101010100000400000000000,
100000100000200020002000100000100100200020002000,
100000200010200000200000101000100000400000000000,
100100200100200200100200100000200200100200200200,
100100200100200200100200100100200200101010101010,
#GOGOEND
200000000000200000100000200000200000100100200000,
000000200000200000200000200000000000000000101010,
#GOGOSTART
100000100100200000100100100000100100200000100000,
#GOGOEND
200000002000000020000000200000000000200000000000,
#GOGOSTART
100000100100200000100100100000100100200000100000,
#GOGOEND
200000100100200000100100200100100100200000000000,
#GOGOSTART
300000000000100000200000100100200200100000200000,
100000100200100000200000100100200000100000200200,
100000000100200000100000000100000000200000000100,
000000100000200100000000100000000100200000100000,
202020200200200000200000100000200000200000200000,
100000200000200020002000100020000020200020002020,
#GOGOEND
#BPMCHANGE 150
#SCROLL 1.47
100000000000
#SCROLL 1
100000200100200000000000200000100200,
100020102010200100200100200000000000100000200000,
100000000000100000100000000000100000100010001000100100100100100000000000200000000000100000100000,
100000000000100010001000100100100100100000000000300000000000000000000000000000000000000000000000,
000000000000000000000000000000000000000000000000,
#BPMCHANGE 260
100000100000000000100000100000100000200000100100,
100000100000000000100000100000100000200000100100,
100000100000000000100000100100100100200000100000,
500000000000000000000000000000000008000000000000,
#GOGOSTART
100100100000100000200000100100100000100000200000,
100100100000100000200000100100100000200000100000,
100100100000200000200000100100100000200000100000,
000000200000100100100100100000000100200000200000,
100100100200100000200000100100100200100000200000,
100100100200100000200000100100100200200000100000,
100100100100200100200000100100200100200000100000,
#MEASURE 8/4
0010222270000000
#GOGOEND
#BPMCHANGE 300
8000000000000000,
#SCROLL 0.5
100000000000000000000000000000000000100000000000100000000000000000000000000000000000100000100000,
100000000000000000000000000000000000100000000000100000000000000000100000000000000000100000000000,
000000000000100000000000000000000000000000000000100000000000100000000000000000000000000000000000,
100000100000100000000000000000000000000000000000100000000000100000000000000000100000100100100100,
100000000000100000100000000000100000000000100000500000000000000008000000200000000000000000000000,
100000000000100000100000000000100000000000100000500008000000500008000000200000000000000000000000,
300000000000000000000000000000000000000000000000300000000000000000000000000000000000000000000000,
300000001000000010000000100000001000100010000000300000000000000000000000000000000000000000000000,
#GOGOSTART
#SCROLL 1
#MEASURE 4/4
700000800000200000100000200000200000100000200000,
700000800000200000100000200000200000100000200000,
700000800000200000100000200000200000100000200000,
700000800000200000100000200000200000100000200000,
100000000000700000800000700000800000100000200000,
100000000000700000800000700000800000100000200000,
100000000000200000100000200000200000100000200000,
100000100000200000100000200000200000100000200000,
#GOGOEND
#BPMCHANGE 225
#MEASURE 3/4
100000000000100000100000100000100000,
100000000000000000200000000000000000,
100000000000000000100000000000000000,
200000000000200000500000000000000008,
#MEASURE 1/4
#BPMCHANGE 37.5
#SCROLL 6
000000000000,
#GOGOSTART
#MEASURE 4/4
#BPMCHANGE 300
#SCROLL 1
100100200000200000100000100100200000200000100000,
100100200000200000100000100100200000200000100000,
100100200000200000200000100100200000200000200000,
100100100100100100100100100100100100100700000000,
#GOGOEND
#MEASURE 1/32
#BPMCHANGE 9.38
#SCROLL 32
8,
#END

COURSE:Hard
LEVEL:7
BALLOON:12,8,8,5,5,5,5,3
SCOREINIT:2200
SCOREDIFF:0
#START
1000001120000011,
1000101120000000,
1000001120002020,
1000111020000000,
#MEASURE 8/4
00000070
#BPMCHANGE 220
00000800,
#GOGOSTART
#MEASURE 4/4
10210121,
#GOGOEND
0022202020002000,
#GOGOSTART
10201120,
#GOGOEND
21212010,
#GOGOSTART
30201120,
12121120,
5,
000000000000000000000000000000000000000000000008,
,
7008,
#GOGOEND
10210121,
22220120,
11212010,
11212000,
11221120,
11112003,
02211221,
02203000,
10201120,
10202120,
1122,
#BPMCHANGE 160.5
#SCROLL 1.1
1122,
#BPMCHANGE 220
#SCROLL 1
10201120,
10201120,
101100101100,
500000000000000000000000000000000000000000000008,
#MEASURE 6/4
,
#MEASURE 4/4
1110100010100000,
4000111010100000,
44401100,
1110101010001000,
25,
000000000000000000000008000000000000000000000000,
1110100011101000,
7008,
11201121,
01201040,
11201121,
01201040,
10201103,
03303040,
11221023,
03333040,
#GOGOSTART
11111111,
1110101010004000,
11220212,
02221040,
1110100020202020,
1110101011101000,
#GOGOEND
10222202,
02022000,
#GOGOSTART
10210121,
#GOGOEND
2022,
#GOGOSTART
10201120,
#GOGOEND
21212010,
#GOGOSTART
30201120,
12121120,
5,
000000000000000000000000000000000000000000000008,
,
,
#GOGOEND
#BPMCHANGE 150
1000001120000011,
1000101120000000,
1010001120002020,
1000111030000000,
,
#BPMCHANGE 260
11011020,
11011020,
11022020,
500000000000000000000000000000000008000000000000,
#GOGOSTART
10201120,
10201120,
10211021,
02202000,
10201120,
10201120,
10211021,
#MEASURE 8/4
02202000
#BPMCHANGE 300
#GOGOEND
00000000,
#SCROLL 0.5
1000001010000011,
10011000,
11001000,
1110000010100000,
500000000000000000000008000000000000000000000000500000000000000000000008000000000000000000000000,
500000000000000000000008000000000000000000000000500000000000000000000008000000000000000000000000,
33,
33,
#GOGOSTART
#SCROLL 1
#MEASURE 4/4
10101110,
10101110,
7008,
7008,
10101110,
10101110,
7008,
7008,
#GOGOEND
#BPMCHANGE 225
#MEASURE 3/4
101110,
12,
11,
200000000000200000500000000000000008,
#MEASURE 1/4
#BPMCHANGE 37.5
#SCROLL 6
,
#GOGOSTART
#BPMCHANGE 300
#SCROLL 1
#MEASURE 4/4
11101110,
22202220,
12121212,
11117000,
#GOGOEND
#MEASURE 1/32
#BPMCHANGE 9.38
#SCROLL 32
8,
#END

COURSE:Normal
LEVEL:7
BALLOON:7,4,4,5,5,5,4
SCOREINIT:3320
SCOREDIFF:0
#START
10012000,
10112000,
10012000,
10112000,
#MEASURE 8/4
00000070
#BPMCHANGE 220
00000800,
#GOGOSTART
#MEASURE 4/4
10110101,
#GOGOEND
02,
#GOGOSTART
10101110,
#GOGOEND
2220,
#GOGOSTART
1212,
11101020,
5,
000000000000000000000000000000000000000000000008,
,
700000000000000000000000000000800000000000000000,
#GOGOEND
10110110,
20220000,
11101000,
22202000,
1122,
11102003,
01101107,
00000800,
1120,
1120,
1110,
#BPMCHANGE 160.5
#SCROLL 1.1
2222,
#BPMCHANGE 220
#SCROLL 1
1111,
1111,
1212,
500000000000000000000000000000000000000000000008,
#MEASURE 6/4
,
#MEASURE 4/4
11101000,
20111000,
22201000,
11111010,
25,
000000000000000000000008000000000000000000000000,
11001100,
7008,
11101002,
02202000,
11101002,
02202000,
10101103,
03303000,
11101003,
03303000,
#GOGOSTART
11101110,
11111000,
20220202,
02222000,
10101111,
02202020,
#GOGOEND
10202202,
02022000,
#GOGOSTART
10110101,
#GOGOEND
02,
#GOGOSTART
10101110,
#GOGOEND
2220,
#GOGOSTART
1212,
11101020,
5,
000000000000000000000000000000000000000000000008,
,
,
#GOGOEND
#BPMCHANGE 150
10012000,
10112000,
11012020,
10113000,
,
#BPMCHANGE 260
1001,
1001,
12,
500000000000000000000000000000000008000000000000,
#GOGOSTART
1122,
1120,
10101002,
0220,
1122,
1120,
10101002,
#MEASURE 8/4
0220
#GOGOEND
#BPMCHANGE 300
0000,
#SCROLL 0.5
11,
12,
11,
12,
500000000000000000000008000000000000000000000000500000000000000000000008000000000000000000000000,
500000000000000000000008000000000000000000000000500000000000000000000008000000000000000000000000,
33,
33,
#GOGOSTART
#SCROLL 1
#MEASURE 4/4
1110,
1110,
7,
8,
1110,
1110,
7,
8,
#GOGOEND
#BPMCHANGE 225
#MEASURE 3/4
101100,
12,
11,
200000000000000000500000000000000008,
#MEASURE 1/4
#BPMCHANGE 37.5
#SCROLL 6
,
#GOGOSTART
#BPMCHANGE 300
#SCROLL 1
#MEASURE 4/4
1111,
2220,
1122,
7,
#GOGOEND
#MEASURE 1/32
#BPMCHANGE 9.38
#SCROLL 32
8,
#END

COURSE:Easy
LEVEL:5
BALLOON:6,3,3,3,9,4,4,4,4
SCOREINIT:5160
SCOREDIFF:0
#START
12,
1120,
12,
1120,
#MEASURE 8/4
00000070
#BPMCHANGE 220
00000800,
#GOGOSTART
#MEASURE 4/4
10010101,
#GOGOEND
,
#GOGOSTART
11,
#GOGOEND
2220,
#GOGOSTART
11,
1110,
5,
000000000000000000000000000000000000000000000008,
,
7008,
#GOGOEND
11,
2200,
1110,
1110,
11,
10101003,
00303007,
00000800,
11,
1110,
11,
#BPMCHANGE 160.5
#SCROLL 1.1
2222,
#BPMCHANGE 220
#SCROLL 1
1110,
1110,
1111,
500000000000000000000000000000000000000000000008,
#MEASURE 6/4
,
#MEASURE 4/4
1110,
21,
2200,
11,
25,
000000000000000000000008000000000000000000000000,
11,
7008,
10001001,
0220,
10001001,
0220,
10001003,
0330,
10101003,
0330,
#GOGOSTART
7,
08,
20200202,
0440,
1111,
0220,
#GOGOEND
10002002,
02002000,
#GOGOSTART
10010101,
#GOGOEND
,
#GOGOSTART
11,
#GOGOEND
2220,
#GOGOSTART
11,
1110,
5,
000000000000000000000000000000000000000000000008,
,
,
#GOGOEND
#BPMCHANGE 150
12,
1120,
12,
1130,
,
#BPMCHANGE 260
1,
1,
1,
500000000000000000000000000008000000000000000000,
#GOGOSTART
1110,
1110,
20002005,
000000000000000000000008000000000000000000000000,
1110,
1110,
20002007,
#MEASURE 8/4
0
#BPMCHANGE 300
#GOGOEND
8,
#SCROLL 0.5
11,
12,
11,
12,
500000000000000000000008000000000000000000000000500000000000000000000008000000000000000000000000,
500000000000000000000008000000000000000000000000500000000000000000000008000000000000000000000000,
33,
33,
#GOGOSTART
#SCROLL 1
#MEASURE 4/4
11,
11,
7,
8,
11,
11,
7,
8,
#GOGOEND
#BPMCHANGE 225
#MEASURE 3/4
11,
1,
22,
200000000000000000500000000000000008,
#MEASURE 1/4
#BPMCHANGE 37.5
#SCROLL 6
,
#GOGOSTART
#BPMCHANGE 300
#SCROLL 1
#MEASURE 4/4
1110,
1110,
1111,
7,
#GOGOEND
#MEASURE 1/32
#BPMCHANGE 9.38
#SCROLL 32
8,
#END
