//TJADB Project
TITLE:Kaijuu Shoujo wa Hi o Fukanai
TITLEJA:怪獣少女は火を吹かない
SUBTITLE:--Soshina feat. Hatsune Miku
SUBTITLEJA:粗品 feat. 初音ミク
BPM:200
WAVE:Kaijuu Shoujo wa Hi o Fukanai.ogg
OFFSET:-1.317
DEMOSTART:40.917

COURSE:Edit
LEVEL:9
BALLOON:12,12,1,1,1,1,1,1,1,1,1,1,1,1,1,1,1,1,1,1,1,1,1,1,1,1,1,1,1,1,1,1,1,1
SCOREINIT:470
SCOREDIFF:90
#START
300000000000300000000000300000000000300000000000,
100000000000200000200000100000200000000000100000,
000000100000200200100100200200100000000000100000,
000000100000200000200000100000000000100100100100,
100000000000100100100100100000000000100100100100,
200000000000200200100100200000000200200200100100,
200000000000200200100100200200100100200200200200,
100000000000100000000000100000300000400000300000,
400000000000200000000000100000100000200000000000,
100000000000200000200000100000200000000000100000,
000000100100200200100100200000200000200000100000,
000000100000200000200000100000000000100100100100,
100000000000100100100100100000000000100100100100,
200000000000200200100100200000000000200200100100,
200000000000200200100100200200100100200200100000,
100000100000200000200000100000400000300000400000,
300000000000200000000000100000100000200000000000,
300000000000200000200000200000200000200000200000,
100000100000200000200000100000100100200000200000,
100000000000200000100000000000100000200200100100,
100000000000200200100100100000000000100100100100,
100100200000100100200000100100200000100100200000,
100100200000100100200000100100200000100100200000,
100000100000200000100000100000200000100000100000,
7008,
100000000000200000200000200000200000200000200000,
100000100100200000200000100000100100200000200000,
100000000000200000100000000000100000200200200200,
200000000200200200200200200000200000200000200000,
100000100100100000100100100000100100100000100100,
100000100100100000100100100000100100100000100100,
10020020100200201002001020010020,
7008,
#GOGOSTART
100000100100200000100000200000100000200000100000,
100000100100200000100000200000100000200000100000,
100000100100200000100000200000100000200000100000,
100100100000200200200000100100100000200200200000,
100000100100200000100000200000100000200000100000,
100000100100200000100000200000100000200000100000,
100000100100200000100000200000100000200000100000,
100100100100100000200200200200200000100100100000,
200000200000100000200000100100000100100000200000,
200000200000100000200000100100000100100000200000,
200000200000100000200000100100000100100000200000,
200200100000200200100000200200100000200200100000,
100100000100100000100100000100100000100000100000,
200200000200200000200200000200200000200000200000,
200100000200100000200100000200100000200000100000,
100100100100100100100100100100100100100100100100,
100000200000100100200000100000200000100100200000,
100000200000100100200000100000200000100100200000,
100000200000100100200000100000200000100100200000,
100000200000100100200000100000200000100100200000,
100100100000100100100000100100100000200200200000,
100100100000100100100000100100100000200200200000,
#GOGOEND
400000100000400000100000400000100000400000100000,
400000100000400000100000400000100000400000100000,
300000100000300000100000400000100000300000100000,
200000000000200000000000200000000000200000000000,
#SCROLL 2
200000100000200000100000200200100000200000100000,
200000200200200000100000100100200000100000200000,
100100200100200000100000100100200100200000100000,
100000200000200000200000100100200200100100200200,
100000200000100000200000100100100000100100100000,
100000200000100000200000100100100000100100100000,
100000100000200000200000100000100000200000200000,
1010101020202020101010102020202
#GOGOSTART
#SCROLL 2.5
7,
8000000
#SCROLL 3
78000000
#SCROLL 3.5
78000000
#SCROLL 4
78000000
#SCROLL 4.5
7,
8000000
#SCROLL 5
78000000
#SCROLL 5.5
78000000
#SCROLL 6
78000000
#SCROLL 6.5
7,
8000000
#SCROLL 7
78000000
#SCROLL 7.5
78000000
#SCROLL 8
78000000
#SCROLL 8.5
7,
8000000
#SCROLL 9
78000000
#SCROLL 9.5
78000000
#SCROLL 10
78000000
#SCROLL 10.5
7,
8000000
#SCROLL 11
78000000
#SCROLL 11.5
78000000
#SCROLL 12
78000000
#SCROLL 12.5
7,
8000000
#SCROLL 13
78000000
#SCROLL 13.5
78000000
#SCROLL 14
78000000
#SCROLL 14.5
7,
8000000
#SCROLL 15
78000000
#SCROLL 15.5
78000000
#SCROLL 16
78000000
#SCROLL 16.5
7,
#MEASURE 5/8
8000000
#SCROLL 17
78000000
#SCROLL 17.5
78000,
#BARLINEOFF
#MEASURE 1/32
#BPMCHANGE 50
#SCROLL 0.5
0007,
#MEASURE 1/4
#BPMCHANGE 200
#SCROLL 1
80000000,
#GOGOEND
#END

COURSE:Oni
LEVEL:8
BALLOON:10
SCOREINIT:560
SCOREDIFF:120
#START
000000000000000000000000000000000000000000000000,
100000000000100000100000200000100000000000100000,
200000100000100100200200100100200000000000500000,
000000000000000000000008000000000000100100200200,
200000000000200200100100100000000000100100200200,
200000000000100100200200200000000100100000200000,
100000000000100100100100200200100100200200100100,
100000000000100000000000200000300000300000400000,
500000000000000000000000000000000000000008000000,
100000000000200000100000100000200000000000100000,
200000100100100000100000200000200000200000500000,
000000000000000000000008000000000000100000100100,
100000000000200200200000100000000000100000100100,
100000000000100100200200100000000000100000100100,
100000000000100100200200100000200200100000200000,
100000000000100000000000200000300000300000400000,
500000000000000000000000000000000000000000000008,
000000000000200000200000100000100000200000000000,
100000000000200000200000100000000000200000200000,
100000000000200000000000100000000000100100100100,
200000000000200200200200100000000000100100100100,
100000100000200000100000100000100000200000200000,
100000100000200000100000100000100000200000200000,
100000100000100000200000100000100000100000200000,
500000000000000000000000000000000000000000000080,
000000000000200000200000100000100000200000000000,
100000100000200000200000100000000000200000200000,
100000000000200000000000100000000000100100100100,
200000000100100100100100200000000000100000200000,
100000100000200000100000100000000000200000100000,
100000100000200000100000100000100000200000100000,
111111222222,
70000008,
#GOGOSTART
100100100000200000000000100000200000000000200000,
100100100000200000000000100000200000000000200000,
100100100000200000000000100000200000000000200000,
100100100000200000100100100000100000200000000000,
100100100000200000000000100000200000000000200000,
100100100000200000000000100000200000000000200000,
100100100000200000000000100000200000000000200000,
100100100000200000100100100000100000200000000000,
100100100000200000000000300000400000000000200000,
100100100000200000000000300000400000000000200000,
100100100000200000200000100100100000200000200000,
100100100000200000100100100000100000200000000000,
100100100000200000000000300000400000000000200000,
100100100000200000000000300000400000000000200000,
100100100000200000000000300000400000000000200000,
100100100000200000100100100000100000200000000000,
100000100000200000100000100100100000200000200000,
100000100000200000100000200200200000100000200000,
100000100000200000100000100100100000200200200000,
100000100000200000100000200200200000100000200000,
100000100000200000100000100100100000200200200000,
300000000000300000400000000000300000000000300000,
#GOGOEND
100000000000100000000000200000000000200000000000,
100000000000100000000000200000000000200000000000,
300000000000300000000000400000000000400000000000,
300000000000000000000000200000200000100000000000,
100100100000200000100000100000000000200000000000,
100100100000200000100000200000000000100000000000,
100100100000200000100000100000000000200000000000,
100100100000200000100000100100100100200000000000,
100100100000200000100000100000000000200000000000,
100100100000200000100000200000000000200000000000,
100100100000200000100000100100100100200000100000,
1010100020001000202020002000000
#GOGOSTART
0,
1110201010002000,
1110201020002000,
1110201010002000,
1110201011112000,
1110201022202000,
1110201022202000,
1110201011112010,
#MEASURE 5/8
1111221030,
#BARLINEOFF
#MEASURE 1/32
#BPMCHANGE 50
#SCROLL 4
3,
#MEASURE 1/4
#BPMCHANGE 200
#SCROLL 1
44,
#GOGOEND
#END

COURSE:Hard
LEVEL:6
BALLOON:7,18
SCOREINIT:650
SCOREDIFF:175
#START
000000000000000000000000000000000000000000000000,
100000000000200000000000100000100000200000100000,
000000100000100100100000100000100000000000500000,
000000000000000000000080000000000000100100100000,
100000000000200200200000200000000000100100100000,
100000000000100000100000100000000000200000200000,
100000000000100000100000200000200000100000100000,
100000000000000000000000000000300000300000400000,
500000000000000000000000000000000000000080000000,
100000000000200000000000100000100000200000100000,
000000100100100000100000100000200000200000500000,
000000000000000000000080000000000000200000200200,
200000000000100100100000100000000000200000200000,
100000000000100100100000100000000000200000200000,
100000000000100000100000200000200000100000100000,
100000000000000000000000000000300000300000400000,
500000000000000000000000000000000000000000000080,
000000000000200000200000100000100000200000000000,
100000000000100000000000200000000000200000200000,
100000000000200000000000100000000000200200200000,
200000000000100100100000100000000000200200200000,
100000100000100000000000100000100000200000000000,
100000100000100000000000100000100000200000000000,
100000100000200000200000100000100000200000200000,
500000000000000000000000000000000000000000000080,
000000000000200000200000100000100000200000000000,
100000000000100000100000200000000000200000200000,
100000000000200000000000100000000000200000200200,
200000000000100000100100100000000000200000200000,
100000100000100000100000100000000000100000000000,
100000100000100000100000100000000000100000000000,
111100111100,
70008000,
#GOGOSTART
100000100000100000000000100000100000000000200000,
100000100000100000000000100000100000000000200000,
100000100000100000000000100000100000000000200000,
100000000000100000100000000000200000200000000000,
100000100000100000000000100000100000000000200000,
100000100000100000000000100000100000000000200000,
100000100000100000000000100000100000000000200000,
100000000000100000100000000000200000200000000000,
100000100000100000000000300000300000000000200000,
100000100000100000000000300000300000000000200000,
100000100000100000100000200000000000200000200000,
100000000000100000100000000000200000200000000000,
100000100000100000000000400000400000000000200000,
100000100000100000000000400000400000000000200000,
100000100000100000000000400000400000000000200000,
100000000000100000100000000000200000200000000000,
100000000000100000000000100000100000200000000000,
100000000000100000000000200000100000200000000000,
100000000000100000000000100000100000200000000000,
100000000000100000100000000000200000200000200000,
9,
,
#GOGOEND
8,
,
300000000000300000000000400000000000400000000000,
300000000000000000000000000000000000000000000000,
100000100000100000000000100000000000200000000000,
100000100000100000000000200000000000100000000000,
100000100000100000000000100000000000200000000000,
100000100000200000100000100000100000200000000000,
100000100000100000000000100000100000200000000000,
100000100000100000000000200000200000200000000000,
5,
0000000000080000000000000000000
#GOGOSTART
0,
11101020,
11102010,
11102020,
11211120,
11102220,
11102220,
5,
#MEASURE 5/8
,
#BARLINEOFF
#MEASURE 1/32
#BPMCHANGE 50
#SCROLL 4
,
#MEASURE 1/4
#BPMCHANGE 200
#SCROLL 1
000008000000,
#GOGOEND
#END

COURSE:Normal
LEVEL:5
BALLOON:5,14
SCOREINIT:680
SCOREDIFF:198
#START
000000000000000000000000000000000000000000000000,
100000000000000000000000100000000000000000000000,
100000000000100000100000100000100000000000500000,
000000000000000000000080000000000000000000000000,
100000000000000000000000100000000000000000000000,
100000000000100000000000200000000000200000000000,
100000000000100000000000200000200000200000000000,
100000000000000000000000000000300000300000000000,
500000000000000000000000000000000000000080000000,
100000000000000000000000100000000000000000000000,
100000000000100000000000100000100000100000500000,
000000000000000000000080000000000000000000000000,
100000000000000000000000100000000000000000000000,
100000000000100000000000200000000000200000000000,
100000000000100000000000200000000000200000000000,
100000000000000000000000000000300000300000000000,
500000000000000000000000000000000000000000000080,
000000000000200000000000200000000000100000000000,
100000000000100000000000200000000000200000000000,
100000000000000000000000100000000000200000200000,
200000000000100000100000100000000000100000000000,
100000100000100000000000100000000000100000000000,
100000100000100000000000100000000000100000000000,
100000100000100000000000100000100000100000000000,
500000000000000000000000000000000000000000000080,
000000000000200000000000200000000000100000000000,
100000000000100000000000200000000000200000000000,
100000000000000000000000100000000000200000200000,
200000000000100000100000100000000000100000000000,
100000100000100000000000100000000000100000000000,
100000100000100000000000100000000000100000000000,
11101110,
700000000000000000000000000800000000000000000000,
#GOGOSTART
100000000000100000000000100000100000000000000000,
100000000000100000000000100000100000000000000000,
100000000000100000000000100000100000000000000000,
100000000000100000100000000000000000100000000000,
100000000000100000000000100000100000000000000000,
100000000000100000000000100000100000000000000000,
100000000000100000000000100000100000000000000000,
100000000000100000100000000000100000100000000000,
100000000000100000000000400000400000000000000000,
100000000000100000000000400000400000000000000000,
100000000000100000000000200000000000100000100000,
100000000000100000100000000000000000100000000000,
100000000000100000000000400000400000000000000000,
100000000000100000000000400000400000000000000000,
100000000000100000000000400000400000000000000000,
100000000000100000100000000000100000100000000000,
100000000000100000000000200000000000200000000000,
100000000000100000000000200000000000200000000000,
100000000000100000000000200000000000200000000000,
100000000000100000000000100000100000100000100000,
9,
,
#GOGOEND
8,
,
300000000000300000000000300000000000300000000000,
300000000000000000000000000000000000000000000000,
100000000000100000000000100000000000200000000000,
100000000000100000000000200000000000100000000000,
100000000000100000000000100000000000200000000000,
100000000000100000000000100000100000100000000000,
100000000000100000000000100000100000100000000000,
100000000000100000000000200000200000200000000000,
5,
0000000000080000000000000000000
#GOGOSTART
0,
1112,
1121,
1122,
10101110,
10102220,
10102220,
5,
#MEASURE 5/8
,
#BARLINEOFF
#MEASURE 1/32
#BPMCHANGE 50
#SCROLL 4
,
#MEASURE 1/4
#BPMCHANGE 200
#SCROLL 1
000008000000,
#GOGOEND
#END

COURSE:Easy
LEVEL:3
BALLOON:4,11
SCOREINIT:720
SCOREDIFF:288
#START
000000000000000000000000000000000000000000000000,
100000000000000000000000000000000000000000000000,
100000000000000000000000000000000000000000500000,
000000000000000000000080000000000000000000000000,
100000000000000000000000100000000000000000000000,
100000000000000000000000100000000000000000000000,
100000000000100000000000100000000000000000000000,
100000000000000000000000000000000000300000000000,
500000000000000000000000000080000000000000000000,
100000000000000000000000000000000000000000000000,
100000000000000000000000000000000000000000500000,
000000000000000000000080000000000000000000000000,
100000000000000000000000100000000000000000000000,
100000000000000000000000100000000000000000000000,
100000000000100000000000100000000000000000000000,
100000000000000000000000000000000000300000000000,
500000000000000000000000000000000000000000000080,
000000000000000000000000200000000000000000000000,
200000000000000000000000200000000000200000000000,
200000000000000000000000200000000000000000000000,
100000000000000000000000100000000000000000000000,
100000000000100000000000100000000000000000000000,
100000000000100000000000100000000000000000000000,
100000000000100000000000100000000000000000000000,
500000000000000000000000000000000000000000000080,
000000000000000000000000200000000000000000000000,
200000000000000000000000200000000000200000000000,
200000000000000000000000200000000000000000000000,
100000000000000000000000100000000000000000000000,
100000000000100000000000100000000000000000000000,
100000000000100000000000100000000000000000000000,
1111,
70000800,
#GOGOSTART
100000000000000000000000100000000000000000000000,
100000000000000000000000100000000000000000000000,
100000000000000000000000100000000000000000000000,
100000000000000000100000000000000000100000000000,
100000000000000000000000100000000000000000000000,
100000000000000000000000100000000000000000000000,
100000000000000000000000100000000000000000000000,
100000000000000000100000000000000000100000000000,
100000000000000000000000400000000000000000000000,
100000000000000000000000400000000000000000000000,
100000000000000000000000200000000000200000000000,
100000000000000000100000000000000000100000000000,
100000000000000000000000400000000000000000000000,
100000000000000000000000400000000000000000000000,
100000000000000000000000400000000000000000000000,
100000000000000000100000000000000000100000000000,
100000000000000000000000200000000000000000000000,
200000000000000000000000100000000000100000000000,
100000000000000000000000200000000000200000000000,
200000000000000000000000000000000000000000000000,
9,
,
#GOGOEND
8,
,
300000000000000000000000300000000000000000000000,
300000000000000000000000000000000000000000000000,
100000000000000000000000100000000000000000000000,
100000000000000000000000200000000000000000000000,
100000000000000000000000100000000000000000000000,
100000000000100000000000100000000000000000000000,
100000000000000000000000100000000000000000000000,
200000000000000000000000200000000000000000000000,
5,
0000000000080000000000000000000
#GOGOSTART
0,
11,
12,
11,
1110,
1110,
1110,
5,
#MEASURE 5/8
,
#BARLINEOFF
#MEASURE 1/32
#BPMCHANGE 50
#SCROLL 4
,
#MEASURE 1/4
#BPMCHANGE 200
#SCROLL 1
000008000000,
#GOGOEND
#END
