//TJADB Project
TITLE:Symphony No. 9 -New Audio/Chart-
TITLEJA:第九交響曲
SUBTITLE:--Ludwig van Beethoven
SUBTITLEJA:新音源・譜面 ベートーヴェン
BPM:177.83
WAVE:Symphony No. 9.ogg
OFFSET:-1.693
DEMOSTART:62.496 //New
Audio. Wii1 and AC12 Asia uses this chart with Old Audio and different BPM/HS. //shinuchi:
6230/3960/3480/2530/1430

COURSE:Edit
LEVEL:9
BALLOON:
SCOREINIT:480,1430
SCOREDIFF:120
#START
500000000000000000000008000000100000100000200000,
#BPMCHANGE 175.59
21122112, //2
#BPMCHANGE 176.71
21122112,
#BPMCHANGE 177.27
#SCROLL 0.95
21122212,
#BPMCHANGE 161.81
#SCROLL 1
1221
#BPMCHANGE 128.26
#SCROLL 1.28
1220,
#MEASURE 3/4
#BPMCHANGE 161.81
#SCROLL 1.2
3,
#MEASURE 4/4
#BPMCHANGE 146
#SCROLL 1
200200200000200000000000200000000000100000002020,
#BPMCHANGE 143.92
200000200011100000100000,
#BPMCHANGE 148.04
200200200000200000000000200000000000100000002020,
#BPMCHANGE 144.2
200000000000200000001010100000000000100000000100, //10
#BPMCHANGE 146.07
100000000000200000200200200000000000200000202020,
#BPMCHANGE 146.51
1000201120201220,
#BPMCHANGE 146.87
1000101120222020,
#BPMCHANGE 146.29
1002201020112010,
#BPMCHANGE 146.01
1000202220002022,
1000201120201220,
#BPMCHANGE 145.7
1000201120222020,
1002201010112020, //18
#BPMCHANGE 146.38
100000200200200000200000100000100100200000202020,
100000100100200000200000100000200200100000202020,
#BPMCHANGE 145.52
1022202010222020,
#BPMCHANGE 144.95
3435,
#BPMCHANGE 147.25
0080101220201020,
#BPMCHANGE 146.02
100000202020100000200000100000200200200000200000,
#BPMCHANGE 145.03
1011201020222020,
#BPMCHANGE 147.65
1002201010221020, //26
#BPMCHANGE 145.71
1111201022221020,
#BPMCHANGE 146.29
1122202022111020,
1122102022112020,
#BPMCHANGE 145.93
3000400030001122,
#BPMCHANGE 142.16
1122102212221020,
#BPMCHANGE 145.33
2211202212221020,
#BPMCHANGE 146.48
1111102212221020,
#BPMCHANGE 145.86
1001201010002000,
#BPMCHANGE 148.43
1111102010002000,
#BPMCHANGE 147.11
1122201010002020,
#BPMCHANGE 145.52
1110202011102020,
#BPMCHANGE 148.24
1122102210000000, //38
#BPMCHANGE 130.66
#GOGOSTART
111010100020111010200020,
#BPMCHANGE 134.13
111010200020111010212020,
#BPMCHANGE 133.97
111010100010222020100020,
#BPMCHANGE 132.37
500000000008000000002000102020201000200000002000,
#BPMCHANGE 134.13
111010100020111010200020,
#BPMCHANGE 132.85
111010200020111010212020,
#BPMCHANGE 134.45
111010100010222020100020,
#BPMCHANGE 131.28
111011201010100020102020, //46
#BPMCHANGE 133.96
121010200020112010200020,
#BPMCHANGE 133.56
121010200020221010200020,
121010200020222010200020,
#BPMCHANGE 135.1
101010001000201020002000300000000000500000000008,
#BPMCHANGE 130.97
000010100020111010200020,
#BPMCHANGE 132.21
111010200020111010212020,
#BPMCHANGE 134.45
111010102010222020112020,
111011201010100020102020, //54
#BPMCHANGE 133.48
121010200020112010200020,
#BPMCHANGE 131.9
121010200020221010200020,
#BPMCHANGE 133.52
121010200020222010200020,
#BPMCHANGE 134.09
101010001000201020002000300000000000500000000008,
#BPMCHANGE 134.13
000010101020111010200020,
#BPMCHANGE 131.12
111010200020111010212020,
#BPMCHANGE 134.13
111010102010222020112020,
#BPMCHANGE 133.56
111011201010100020102020, //62
#BPMCHANGE 134.41
100010101020122020201010,
122020122020300000400000,
#BPMCHANGE 131.12
222111222111,
#BPMCHANGE 134.23
222020111010222020
#BPMCHANGE 117.18
#SCROLL 1.16
111010, //66
#MEASURE 2/4
#BPMCHANGE 104.53
#SCROLL 1.33
3,
#MEASURE 5/8
#BPMCHANGE 88.52
#SCROLL 1.49
30400,
#MEASURE 4/4
#BPMCHANGE 126.63
#SCROLL 1
6,
000000000000000000000000000000000008000000000000,
#GOGOEND
3,
0,
0, //73
#END

COURSE:Oni
LEVEL:6
BALLOON:
SCOREINIT:720,2810
SCOREDIFF:203
#START
00000100,
#BPMCHANGE 175.59
01000100, //2
#BPMCHANGE 176.71
01010101,
#BPMCHANGE 177.27
#SCROLL 0.95
01011221,
#BPMCHANGE 161.81
#SCROLL 1
1221
#BPMCHANGE 128.26
#SCROLL 1.28
1220,
#MEASURE 3/4
#BPMCHANGE 161.81
#SCROLL 1.2
3,
#MEASURE 4/4
#BPMCHANGE 146
#SCROLL 1
22,
#BPMCHANGE 143.92
20002220,
#BPMCHANGE 148.04
2220,
#BPMCHANGE 144.2
20202220, //10
#BPMCHANGE 146.07
1112,
#BPMCHANGE 146.51
10201110,
#BPMCHANGE 146.87
1112,
#BPMCHANGE 146.29
10011020,
#BPMCHANGE 146.01
1112,
10201110,
#BPMCHANGE 145.7
1112,
10011000, //18
#BPMCHANGE 146.38
10201021,
10211020,
#BPMCHANGE 145.52
10211021,
#BPMCHANGE 144.95
1111,
#BPMCHANGE 147.25
0112,
#BPMCHANGE 146.02
10101120,
#BPMCHANGE 145.03
2121,
#BPMCHANGE 147.65
20011000, //26
#BPMCHANGE 145.71
3232,
#BPMCHANGE 146.29
30223020,
30223020,
#BPMCHANGE 145.93
3331,
#BPMCHANGE 142.16
0112,
#BPMCHANGE 145.33
10201021,
#BPMCHANGE 146.48
1212,
#BPMCHANGE 145.86
10011020,
#BPMCHANGE 148.43
10011020,
#BPMCHANGE 147.11
10011022,
#BPMCHANGE 145.52
11221122,
#BPMCHANGE 148.24
12123000, //38
#BPMCHANGE 130.66
#GOGOSTART
3434,
#BPMCHANGE 134.13
100100111222,
#BPMCHANGE 133.97
100201100200,
#BPMCHANGE 132.37
100001102200,
#BPMCHANGE 134.13
3434,
#BPMCHANGE 132.85
100201112200,
#BPMCHANGE 134.45
111222100200,
#BPMCHANGE 131.28
300001102202, //46
#BPMCHANGE 133.96
111202111202,
#BPMCHANGE 133.56
100202122102,
111202111200,
#BPMCHANGE 135.1
3330,
#BPMCHANGE 130.97
3434,
#BPMCHANGE 132.21
100101122200,
#BPMCHANGE 134.45
111222100200,
300001102202, //54
#BPMCHANGE 133.48
111202111202,
#BPMCHANGE 131.9
100202112102,
#BPMCHANGE 133.52
111202111202,
#BPMCHANGE 134.09
100101100200,
#BPMCHANGE 134.13
3434,
#BPMCHANGE 131.12
100101122200,
#BPMCHANGE 134.13
111222100200,
#BPMCHANGE 133.56
300001102200, //62
#BPMCHANGE 134.41
300112100200,
300112100200,
#BPMCHANGE 131.12
202202202202,
#BPMCHANGE 134.23
111111222
#BPMCHANGE 117.18
#SCROLL 1.16
222, //66
#MEASURE 2/4
#BPMCHANGE 104.53
#SCROLL 1.33
1,
#MEASURE 5/8
#BPMCHANGE 88.52
#SCROLL 1.49
30300,
#MEASURE 4/4
#BPMCHANGE 126.63
#SCROLL 1
6,
000000000000000000000000000000000008000000000000,
#GOGOEND
3,
0,
0, //73
#END

COURSE:Hard
LEVEL:3
BALLOON:
SCOREINIT:690,3740
SCOREDIFF:205
#START
00000100,
#BPMCHANGE 175.59
#SCROLL 1.01
01000101, //2
#BPMCHANGE 176.71
#SCROLL 1
01010101,
#BPMCHANGE 177.27
01010101,
#BPMCHANGE 161.81
#SCROLL 1.09
0110
#BPMCHANGE 128.26
#SCROLL 1.38
0000,
#MEASURE 3/4
#BPMCHANGE 161.81
#SCROLL 1.09
3,
#MEASURE 4/4
#BPMCHANGE 146
#SCROLL 1
22,
#BPMCHANGE 143.92
#SCROLL 1.01
200000202200,
#BPMCHANGE 148.04
#SCROLL 0.98
2220,
#BPMCHANGE 144.2
#SCROLL 1.01
200000202200, //10
#BPMCHANGE 146.07
#SCROLL 0.99
1110,
#BPMCHANGE 146.51
100100101100,
#BPMCHANGE 146.87
1110,
#BPMCHANGE 146.29
100001100200,
#BPMCHANGE 146.01
1110,
100100101100,
#BPMCHANGE 145.7
#SCROLL 1
1110,
100001100000, //18
#BPMCHANGE 146.38
#SCROLL 0.99
100000100101,
100101100200,
#BPMCHANGE 145.52
#SCROLL 1
100101100000,
#BPMCHANGE 144.95
1110,
#BPMCHANGE 147.25
#SCROLL 0.99
1011,
#BPMCHANGE 146.02
2011,
#BPMCHANGE 145.03
#SCROLL 1
2011,
#BPMCHANGE 147.65
#SCROLL 0.98
200001100000, //26
#BPMCHANGE 145.71
#SCROLL 1
3220,
#BPMCHANGE 146.29
#SCROLL 0.99
100202200000,
100202200000,
#BPMCHANGE 145.93
#SCROLL 1
1110,
#BPMCHANGE 142.16
#SCROLL 1.02
1011,
#BPMCHANGE 145.33
#SCROLL 1
200000100101,
#BPMCHANGE 146.48
#SCROLL 0.99
1011,
#BPMCHANGE 145.86
#SCROLL 1
100001100200,
#BPMCHANGE 148.43
#SCROLL 0.98
10011020,
#BPMCHANGE 147.11
#SCROLL 0.99
10011020,
#BPMCHANGE 145.52
#SCROLL 1
11101110,
#BPMCHANGE 148.24
#SCROLL 0.98
11113000, //38
#BPMCHANGE 130.66
#SCROLL 1
#GOGOSTART
3232,
#BPMCHANGE 134.13
#SCROLL 0.97
100101100200,
#BPMCHANGE 133.97
100101100200,
#BPMCHANGE 132.37
#SCROLL 0.98
100001101100,
#BPMCHANGE 134.13
#SCROLL 0.97
3232,
#BPMCHANGE 132.85
#SCROLL 0.98
100101100200,
#BPMCHANGE 134.45
#SCROLL 0.97
100101100200,
#BPMCHANGE 131.28
#SCROLL 0.99
300001100000, //46
#BPMCHANGE 133.96
#SCROLL 0.97
2323,
#BPMCHANGE 133.56
100101100200,
100101100200,
#BPMCHANGE 135.1
#SCROLL 0.96
1110,
#BPMCHANGE 130.97
#SCROLL 0.99
100101100200,
#BPMCHANGE 132.21
#SCROLL 0.98
100101100200,
#BPMCHANGE 134.45
#SCROLL 0.97
100101100100,
300001100000, //54
#BPMCHANGE 133.48
100100101100,
#BPMCHANGE 131.9
#SCROLL 0.99
100101100200,
#BPMCHANGE 133.52
#SCROLL 0.97
100101100200,
#BPMCHANGE 134.09
100101100200,
#BPMCHANGE 134.13
100101100200,
#BPMCHANGE 131.12
#SCROLL 0.99
100101100200,
#BPMCHANGE 134.13
#SCROLL 0.97
100101100200,
#BPMCHANGE 133.56
300001100200, //62
#BPMCHANGE 134.41
300001100200,
300001100000,
#BPMCHANGE 131.12
#SCROLL 0.99
202202202200,
#BPMCHANGE 134.23
#SCROLL 0.97
101101101
#BPMCHANGE 117.18
#SCROLL 1.11
100, //66
#MEASURE 2/4
#BPMCHANGE 104.53
#SCROLL 1.24
3,
#MEASURE 5/8
#BPMCHANGE 88.52
#SCROLL 1.47
30300,
#MEASURE 4/4
#BPMCHANGE 126.63
#SCROLL 1.03
6,
000000000000000000000000000000000008000000000000,
#GOGOEND
3,
0,
0, //73
#END

COURSE:Normal
LEVEL:3
BALLOON:28,22
SCOREINIT:600,5800
SCOREDIFF:180 //Wii1 has a Giant Note at #62 that affects stanzas #63-64 //Miss:
11,
11, //OK:
1111,
1111, //Good: Same as usual chart.
#START
7,
#BPMCHANGE 175.59
#SCROLL 1.01
0, //2
#BPMCHANGE 176.71
#SCROLL 1
0,
#BPMCHANGE 177.27
0,
#BPMCHANGE 161.81
#SCROLL 1.09
08000000
#BPMCHANGE 128.26
#SCROLL 1.38
00000000,
#MEASURE 3/4
#BPMCHANGE 161.81
#SCROLL 1.09
3,
#MEASURE 4/4
#BPMCHANGE 146
#SCROLL 1
22,
#BPMCHANGE 143.92
#SCROLL 1.01
2220,
#BPMCHANGE 148.04
#SCROLL 0.98
22,
#BPMCHANGE 144.2
#SCROLL 1.01
2220, //10
#BPMCHANGE 146.07
#SCROLL 0.99
11,
#BPMCHANGE 146.51
1011,
#BPMCHANGE 146.87
1011,
#BPMCHANGE 146.29
10022000,
#BPMCHANGE 146.01
11,
1011,
#BPMCHANGE 145.7
#SCROLL 1
1011,
10022000, //18
#BPMCHANGE 146.38
#SCROLL 0.99
1011,
10111000,
#BPMCHANGE 145.52
#SCROLL 1
10111000,
#BPMCHANGE 144.95
1110,
#BPMCHANGE 147.25
#SCROLL 0.99
1011,
#BPMCHANGE 146.02
1011,
#BPMCHANGE 145.03
#SCROLL 1
1011,
#BPMCHANGE 147.65
#SCROLL 0.98
10022000, //26
#BPMCHANGE 145.71
#SCROLL 1
32,
#BPMCHANGE 146.29
#SCROLL 0.99
1110,
12,
#BPMCHANGE 145.93
#SCROLL 1
1110,
#BPMCHANGE 142.16
#SCROLL 1.02
3011,
#BPMCHANGE 145.33
#SCROLL 1
2011,
#BPMCHANGE 146.48
#SCROLL 0.99
2011,
#BPMCHANGE 145.86
#SCROLL 1
500000000000000000000000000000000008000000000000,
#BPMCHANGE 148.43
#SCROLL 0.98
10011000,
#BPMCHANGE 147.11
#SCROLL 0.99
10011000,
#BPMCHANGE 145.52
#SCROLL 1
11,
#BPMCHANGE 148.24
#SCROLL 0.98
10111000, //38
#BPMCHANGE 130.66
#SCROLL 1
#GOGOSTART
3033,
#BPMCHANGE 134.13
#SCROLL 0.97
3330,
#BPMCHANGE 133.97
3334,
#BPMCHANGE 132.37
#SCROLL 0.98
33,
#BPMCHANGE 134.13
#SCROLL 0.97
3033,
#BPMCHANGE 132.85
#SCROLL 0.98
3330,
#BPMCHANGE 134.45
#SCROLL 0.97
3034,
#BPMCHANGE 131.28
#SCROLL 0.99
33, //46
#BPMCHANGE 133.96
#SCROLL 0.97
3033,
#BPMCHANGE 133.56
3034,
3034,
#BPMCHANGE 135.1
#SCROLL 0.96
3330,
#BPMCHANGE 130.97
#SCROLL 0.99
3033,
#BPMCHANGE 132.21
#SCROLL 0.98
3034,
#BPMCHANGE 134.45
#SCROLL 0.97
33,
33, //54
#BPMCHANGE 133.48
3333,
#BPMCHANGE 131.9
#SCROLL 0.99
3034,
#BPMCHANGE 133.52
#SCROLL 0.97
3034,
#BPMCHANGE 134.09
3330,
#BPMCHANGE 134.13
3033,
#BPMCHANGE 131.12
#SCROLL 0.99
3034,
#BPMCHANGE 134.13
#SCROLL 0.97
33,
#BPMCHANGE 133.56
3, //62
#BPMCHANGE 134.41
10111011,
10111010,
#BPMCHANGE 131.12
#SCROLL 0.99
7,
#BPMCHANGE 134.23
#SCROLL 0.97
000000000000000000000000000000000000
#BPMCHANGE 117.18
#SCROLL 1.11
000000000008, //66
#MEASURE 2/4
#BPMCHANGE 104.53
#SCROLL 1.24
0,
#MEASURE 5/8
#BPMCHANGE 88.52
#SCROLL 1.47
30300,
#MEASURE 4/4
#BPMCHANGE 126.63
#SCROLL 1.03
6,
000000000000000000000000000000000008000000000000,
#GOGOEND
3,
0,
0, //73
#END

COURSE:Easy
LEVEL:3
BALLOON:24,18
SCOREINIT:660,9520
SCOREDIFF:285
#START
7,
#BPMCHANGE 175.59
#SCROLL 1.01
0, //2
#BPMCHANGE 176.71
#SCROLL 1
0,
#BPMCHANGE 177.27
0,
#BPMCHANGE 161.81
#SCROLL 1.09
08000000
#BPMCHANGE 128.26
#SCROLL 1.38
00000000,
#MEASURE 3/4
#BPMCHANGE 161.81
#SCROLL 1.09
0,
#MEASURE 4/4
#BPMCHANGE 146
#SCROLL 1
1,
#BPMCHANGE 143.92
#SCROLL 1.01
11,
#BPMCHANGE 148.04
#SCROLL 0.98
1,
#BPMCHANGE 144.2
#SCROLL 1.01
11, //10
#BPMCHANGE 146.07
#SCROLL 0.99
11,
#BPMCHANGE 146.51
1110,
#BPMCHANGE 146.87
11,
#BPMCHANGE 146.29
1,
#BPMCHANGE 146.01
11,
1110,
#BPMCHANGE 145.7
#SCROLL 1
11,
1, //18
#BPMCHANGE 146.38
#SCROLL 0.99
11,
1110,
#BPMCHANGE 145.52
#SCROLL 1
1110,
#BPMCHANGE 144.95
1,
#BPMCHANGE 147.25
#SCROLL 0.99
11,
#BPMCHANGE 146.02
1110,
#BPMCHANGE 145.03
#SCROLL 1
11,
#BPMCHANGE 147.65
#SCROLL 0.98
1, //26
#BPMCHANGE 145.71
#SCROLL 1
33,
#BPMCHANGE 146.29
#SCROLL 0.99
3,
33,
#BPMCHANGE 145.93
#SCROLL 1
3,
#BPMCHANGE 142.16
#SCROLL 1.02
11,
#BPMCHANGE 145.33
#SCROLL 1
1110,
#BPMCHANGE 146.48
#SCROLL 0.99
11,
#BPMCHANGE 145.86
#SCROLL 1
600000000000000000000000000000000008000000000000,
#BPMCHANGE 148.43
#SCROLL 0.98
02,
#BPMCHANGE 147.11
#SCROLL 0.99
02,
#BPMCHANGE 145.52
#SCROLL 1
22,
#BPMCHANGE 148.24
#SCROLL 0.98
2, //38
#BPMCHANGE 130.66
#SCROLL 1
#GOGOSTART
33,
#BPMCHANGE 134.13
#SCROLL 0.97
3330,
#BPMCHANGE 133.97
33,
#BPMCHANGE 132.37
#SCROLL 0.98
600000000000000000000000000008000000000000000000,
#BPMCHANGE 134.13
#SCROLL 0.97
33,
#BPMCHANGE 132.85
#SCROLL 0.98
3330,
#BPMCHANGE 134.45
#SCROLL 0.97
33,
#BPMCHANGE 131.28
#SCROLL 0.99
600000000000000000000000000008000000000000000000, //46
#BPMCHANGE 133.96
#SCROLL 0.97
33,
#BPMCHANGE 133.56
3,
33,
#BPMCHANGE 135.1
#SCROLL 0.96
3,
#BPMCHANGE 130.97
#SCROLL 0.99
33,
#BPMCHANGE 132.21
#SCROLL 0.98
3330,
#BPMCHANGE 134.45
#SCROLL 0.97
33,
600000000000000000000000000008000000000000000000, //54
#BPMCHANGE 133.48
33,
#BPMCHANGE 131.9
#SCROLL 0.99
3,
#BPMCHANGE 133.52
#SCROLL 0.97
33,
#BPMCHANGE 134.09
3,
#BPMCHANGE 134.13
33,
#BPMCHANGE 131.12
#SCROLL 0.99
3330,
#BPMCHANGE 134.13
#SCROLL 0.97
33,
#BPMCHANGE 133.56
600000000000000000000000000008000000000000000000, //62
#BPMCHANGE 134.41
12,
12,
#BPMCHANGE 131.12
#SCROLL 0.99
7,
#BPMCHANGE 134.23
#SCROLL 0.97
000000000000000000000000000000000000
#BPMCHANGE 117.18
#SCROLL 1.11
000000000008, //66
#MEASURE 2/4
#BPMCHANGE 104.53
#SCROLL 1.24
0,
#MEASURE 5/8
#BPMCHANGE 88.52
#SCROLL 1.47
30300,
#MEASURE 4/4
#BPMCHANGE 126.63
#SCROLL 1.03
6,
000000000000000000000000000008000000000000000000,
#GOGOEND
3,
0,
0, //73
#END
