//TJADB Project
TITLE:Hello, Mr. JOKER
TITLEJA:Hello, Mr.JOKER
SUBTITLE:--D-D-Dice
SUBTITLEJA:打打だいず
BPM:255
WAVE:Hello, Mr. JOKER.ogg
OFFSET:-1.002
DEMOSTART:27.354

COURSE:Oni
LEVEL:10
BALLOON:8,19,4,53
SCOREINIT:1200
SCOREDIFF:0
#START
12,
02,
12,
0222,
12,
0221,
#GOGOSTART
1212121020202020,
101010300300,
#GOGOEND
100200222201,
002200222200,
100200222202,
102202122200,
100100100101,
101101101100,
0000000000001111,
21212120,
1022102010102210,
1022102010102210,
1022102010102210,
102020100200101020200000,
3222,
21212130,
#GOGOSTART
1212121020202020,
101010300300,
#GOGOEND
1110201000201020,
1110201000201020,
1110101011101010,
1012121012121020,
1000200011102000,
1110201000112020,
1000200011102000,
1110201000100020,
1500,
000000000000000000000008000000000000000000000000,
1022201000102020,
100020002000100000100000000000100000000000100100,
1000200011102000,
1110201000112020,
1000202011102020,
1110101000221020,
0708,
100111100200,
111111222222,
100000002000000020000000100000100100100100100100,
101122,
14,
101122,
1140,
10102222,
100200222111,
10210210,
111222112211,
2222,
21212120,
1111,
100100200000100000200000100000002000000020000000,
1000102010221020,
1000102010221020,
1010101011101010,
100100100000100000100000100000001000000010000000,
122222,
111111,
111,
100011111000,
#MEASURE 3/4
#BPMCHANGE 185
222,
222,
200000222200200200,
202220,
100020202121,
200020202121,
200022122001,
100110212000,
#BPMCHANGE 195
102220222000,
102210122022,
#BPMCHANGE 205
100022202020,
102220,
#MEASURE 4/4
#BPMCHANGE 215
3000400010202222,
1000200020201212,
#BPMCHANGE 224
#SCROLL 1.00446428571
1122,
1000001110000000,
#BPMCHANGE 235
#SCROLL 1
10210210,
10210210,
#BPMCHANGE 245
10210210,
1110221022202220,
#BPMCHANGE 255
1100201000201000,
1100201000201000,
#BPMCHANGE 265
1100201000201000,
200010001000200000100000200100100100200000000000,
#GOGOSTART
#BPMCHANGE 276
#SCROLL 0.99637681159
1022201022201000,
1022201022201000,
#BPMCHANGE 275
#SCROLL 1
1022101022101000,
101010200200101010200000,
7,
00000008,
#GOGOEND
02,
200000111222,
#GOGOSTART
101200102001,
001102101100,
102200102002,
100000005000000000000000000000000008000000000000,
303002200200,
303002200200,
100202102001,
002202122222,
101200102001,
001102101100,
102200102120,
100000005000000000000000000000000008000000000000,
303002200200,
303001100200,
11111111,
500000000000000000000000000000000000000000000008,
#GOGOEND
00
#GOGOSTART
302212,
12112122,
1000222000222020,
1112,
1110201110205000,
000000000000000000000008000000000000100000000000,
2210102210100030,
0000111011101110,
#GOGOEND
200200200202,
202200200200,
#GOGOSTART
100200101010,
411300,
101201101201,
102201102007,
000802200100,
200100303007,
,
,
,
,
800000100100100010001000100010001000100010001000,
101010400400,
#GOGOEND
4,
02,
200200200202,
0222,
#GOGOSTART
1212121020202020,
101010300300,
#GOGOEND
600000000000000000000008000000000000000000000000,
#END

COURSE:Hard
LEVEL:8
BALLOON:13,8,16,12,38
SCOREINIT:2020
SCOREDIFF:0
#START
12,
02,
12,
0222,
12,
0221,
#GOGOSTART
6,
000000000000000000000000000000000008000000000000,
#GOGOEND
100200200202,
002200202200,
100200202202,
002200202200,
1111,
1111,
,
21212120,
10110110,
10110110,
10110110,
101010100100100000100000,
3222,
21212030,
#GOGOSTART
6,
000000000000000000000000000000000008000000000000,
#GOGOEND
10210111,
10210111,
1010101011101010,
500000000000000000000000000000000008000000000000,
10201120,
11210222,
10201120,
11210202,
1500,
000000000000000000000008000000000000000000000000,
10210122,
10110101,
10201120,
11210222,
10221020,
11110212,
000000000000500000000000000000000000000008000000,
,
101100202200,
111100,
101222,
14,
101222,
1140,
10102222,
1221,
10210210,
111100100000,
2222,
21212120,
1111,
100000200000100000200000100000002000000020000000,
10101210,
10101210,
11101110,
100100100000100000000000100000001000000010000000,
102202,
101101,
7,
08,
#MEASURE 3/4
#BPMCHANGE 185
220,
220,
202002,
222,
200020002220,
200020002220,
202120,
200220,
#BPMCHANGE 195
102220,
101120,
#BPMCHANGE 205
102022,
102220,
#MEASURE 4/4
#BPMCHANGE 215
30302220,
30302220,
#BPMCHANGE 224
#SCROLL 1.00446428571
1122,
500000000000000000000000000000000000000008000000,
#BPMCHANGE 235
#SCROLL 1
10010010,
10010010,
#BPMCHANGE 245
10010010,
1000100022202000,
#BPMCHANGE 255
10110110,
10110110,
#BPMCHANGE 265
10110110,
70000008,
#GOGOSTART
#BPMCHANGE 276
#SCROLL 0.99637681159
12212210,
12212210,
#BPMCHANGE 275
#SCROLL 1
12212210,
11211210,
9,
00000008,
#GOGOEND
,
,
#GOGOSTART
100200100101,
0111,
100200101000,
100000005000000000000000000000000008000000000000,
303000200200,
303000200200,
100100101105,
000000000000000000000000000000000008000000000000,
100200101001,
0111,
100200101000,
100000005000000000000000000000000008000000000000,
303000200200,
303000200200,
10101110,
500000000000000000000000000000000000000000000008,
#GOGOEND
00
#GOGOSTART
302210,
12102120,
10200200,
1112,
11211050,
000000000000000000000000000008000000000000000000,
20020006,
000000000000000000000000000008000000000000000000,
#GOGOEND
200200200002,
202200200200,
#GOGOSTART
0700,
08,
100100101100,
100100101005,
000000000008000000000000200000000000100000000000,
100100303007,
,
,
,
,
86000000,
000000000000000000000000000000000000000000000008,
#GOGOEND
,
02,
200200200202,
0222,
#GOGOSTART
6,
000000000000000000000000000000000008000000000000,
#GOGOEND
3,
#END

COURSE:Normal
LEVEL:7
BALLOON:5,9,5,12,9,28
SCOREINIT:3110
SCOREDIFF:0
#START
12,
02,
12,
0220,
12,
0220,
#GOGOSTART
6,
000000000000000000000000000000000008000000000000,
#GOGOEND
100200200202,
0222,
100200200202,
0222,
1111,
1111,
,
2222,
10010010,
10010010,
10010010,
1,
3222,
2223,
#GOGOSTART
6,
000000000000000000000000000000000008000000000000,
#GOGOEND
10010110,
10010110,
10101110,
500000000000000000000000000000000008000000000000,
1212,
10110000,
1212,
10110000,
1500,
000000000000000000000008000000000000000000000000,
20020000,
10010000,
1212,
10110000,
1212,
10110000,
000000000000500000000000000000000000000008000000,
,
1122,
111100,
101200,
14,
101200,
14,
10002220,
1110,
10010010,
70000008,
2222,
2222,
1111,
2220,
1110,
1110,
1111,
11101000,
12,
12,
7,
08,
#MEASURE 3/4
#BPMCHANGE 185
2,
2,
2,
2,
202,
202,
202,
200220,
#BPMCHANGE 195
122,
112,
#BPMCHANGE 205
102002,
102220,
#MEASURE 4/4
#BPMCHANGE 215
3320,
3320,
#BPMCHANGE 224
#SCROLL 1.00446428571
1111,
500000000000000000000000000000000000000008000000,
#BPMCHANGE 235
#SCROLL 1
10010000,
10010000,
#BPMCHANGE 245
10010000,
1122,
#BPMCHANGE 255
10010010,
10010010,
#BPMCHANGE 265
10010010,
70000008,
#GOGOSTART
#BPMCHANGE 276
#SCROLL 0.99637681159
10010010,
10010010,
#BPMCHANGE 275
#SCROLL 1
10010010,
10010010,
9,
00000008,
#GOGOEND
,
,
#GOGOSTART
100200100001,
0111,
1210,
100000005000000000000000000000000008000000000000,
303000200000,
303000200000,
100100100005,
000000000000000000000000000000000008000000000000,
100200100001,
0111,
1210,
100000005000000000000000000000000008000000000000,
303000200000,
303000200000,
1111,
500000000000000000000000000000000000000000000008,
#GOGOEND
0
#GOGOSTART
311,
10101110,
00200200,
1112,
10111050,
000000000000000000000000000008000000000000000000,
20020006,
000000000000000000000000000008000000000000000000,
#GOGOEND
22,
22,
#GOGOSTART
0700,
08,
1110,
100100100005,
000000000008000000000000200000000000100000000000,
100100303007,
,
,
,
,
86000000,
000000000000000000000000000000000000000000000008,
#GOGOEND
,
02,
200000200202,
0220,
#GOGOSTART
6,
000000000000000000000000000000000008000000000000,
#GOGOEND
3,
#END

COURSE:Easy
LEVEL:4
BALLOON:3,4,3,9,7,22
SCOREINIT:5540
SCOREDIFF:0
#START
1,
02,
1,
02,
1,
02,
#GOGOSTART
6,
000000000000000000000000000000000008000000000000,
#GOGOEND
12,
02,
12,
02,
11,
1111,
,
2220,
10010000,
10010000,
10010000,
1,
3,
,
#GOGOSTART
6,
000000000000000000000000000000000008000000000000,
#GOGOEND
10010010,
10010010,
11,
500000000000000000000000000008000000000000000000,
11,
1100,
11,
1100,
1500,
000000000000000000000008000000000000000000000000,
20020000,
10010000,
11,
1100,
11,
1100,
000000000000500000000000000000000000000008000000,
,
11,
1,
12,
14,
12,
14,
1,
11,
1,
70000008,
2,
2,
2,
22,
1,
1,
11,
11,
12,
12,
7,
08,
#MEASURE 3/4
#BPMCHANGE 185
2,
,
2,
,
2,
2,
202,
2,
#BPMCHANGE 195
1,
1,
#BPMCHANGE 205
1,
1,
#MEASURE 4/4
#BPMCHANGE 215
32,
12,
#BPMCHANGE 224
#SCROLL 1.00446428571
11,
1,
#BPMCHANGE 235
#SCROLL 1
1,
1,
#BPMCHANGE 245
1,
1110,
#BPMCHANGE 255
10010000,
10010000,
#BPMCHANGE 265
10010000,
70000008,
#GOGOSTART
#BPMCHANGE 276
#SCROLL 0.99637681159
10010010,
10010010,
#BPMCHANGE 275
#SCROLL 1
10010010,
10010010,
9,
00000008,
#GOGOEND
,
,
#GOGOSTART
100000100005,
000000000000000000000008000000000000000000000000,
11,
100000005000000000000000000000000008000000000000,
3,
3,
100000100005,
000000000000000000000000000000000008000000000000,
100000100005,
000000000000000000000008000000000000000000000000,
11,
100000005000000000000000000000000008000000000000,
3,
3,
11,
500000000000000000000000000000000008000000000000,
#GOGOEND
0
#GOGOSTART
300,
1110,
00100200,
1110,
1015,
000000000000000000000000000008000000000000000000,
20020006,
000000000000000000000000000008000000000000000000,
#GOGOEND
2,
22,
#GOGOSTART
0700,
08,
1110,
100100100005,
000000000000000000000008000000000000000000000000,
100100300007,
,
,
,
,
86000000,
000000000000000000000000000000000000000000000008,
#GOGOEND
,
02,
22,
02,
#GOGOSTART
6,
000000000000000000000000000000000008000000000000,
#GOGOEND
3,
#END
