//TJADB Project
TITLE:punk bastards
TITLEJA:punk bastards
SUBTITLE:--Sobrem
SUBTITLEJA:Sobrem
BPM:225
WAVE:punk bastards.ogg
OFFSET:-1.084
DEMOSTART:45.884

COURSE:Oni
LEVEL:9
BALLOON:21,13,10
SCOREINIT:1330
SCOREDIFF:0
#START
300000000000200000200000000000200000200000200000,
300000000000300000000000300000000000000000000000,
#GOGOSTART
100100100000200000200000000000100000200000200000,
100100100000200000100000000000100000200000100000,
100100100000200000200000000000100000200000200000,
100000000000300000000000300000000000300000000000,
100100100000200000200000000000100000200000200000,
100100100000200000100000000000100000200000100000,
100100100000200000200000100100100100100100200000,
300000000000300000000000300000000000000000000000,
#GOGOEND
100000100100100000100000200000100000200000200000,
100000000000100000000000200200200000100000200000,
100000100100100000100000200000200000100000200000,
100000000000100000000000200200100000200000200000,
100000100100100000100000200000100000200000200000,
100000000000100000000000200200200000100000200000,
100000100100100000100000200000200000100000200000,
100000000000100000000000200200100000200000200000,
100000100100200000200000100000100000200000100000,
100000100000200200100000200200200000100000200000,
100000100100200000200000100000100000200000100000,
100000100000200200100000200200100000200000200000,
100000100100200000200000100000100000200000100000,
100000100000200200100000200200200000100000200000,
100000100100200000200000100100100100100100200000,
300000000000300000000000300000000000000000200000,
000000200000200000100000000000200000200000100000,
000000200000200000100000000000200000000000100000,
200100100100200100100100200000000000200100100100,
200100100100200000100000100100100100100100200000,
000000200000200000100000000000200000200000100000,
000000200000200000100000200000100000200000100000,
200200100100200200100100200000000000200200100100,
200200100100200000100000100000200000100000200000,
500000000008000000000000100000100000200000500000,
000000000008000000000000100000200000100000200000,
500000000008000000000000100000100000200000500000,
000000000008000000000000100000200000100000200000,
700000000000000000000000000000000000000000000000,
000000000000000000000000000000000000800000000000,
200000000000200000000000200000000000200000000000,
200200100100200000000000500000000000000008000000,
#GOGOSTART
100100100000200000200000000000100000200000200000,
100100100000200000100000000000100000200000100000,
100100100000200000200000000000100000200000200000,
100000000000300000000000300000000000300000000000,
100100100000200000200200200000100000200000100000,
100100100000200000100100200000100000200000100000,
100100100000200000100000200200200200200200200000,
#GOGOEND
#BPMCHANGE 158.82
#SCROLL 1.42
300000000000
#BPMCHANGE 200
#SCROLL 1.12
400000000000000000000000
#BPMCHANGE 225
#SCROLL 0.75
200020002000,
7,
800000000000200000002000000000002000000000000000,
300000000000100010001000200020002000100000001000,
000010001000200020001000100020002000100020000000,
200020001000100000002000000000000000000000000000,
000000020000200000010000100000200000200000100000,
100000200002000020000200001000000002000000020000,
100000000000000000002000000000010000020000010000,
200020001000100000002000200010001000000020002000,
100010000000200020001000100000002000200010001000,
000020002000100010000000200020001000100000002000,
200010001000000000000000100010001000100010001000,
200020001000200020001000200020001000200020001000,
200020001000200020001000200020001000200020001000,
200000000000000000000000100000000000000000000000,
#SCROLL 0.87
100000200000200000200000200000200000200000500000,
000000000008000000000000100000100000200000500000,
000000000008000000000000100000200000100000200000,
500000000008000000000000100000100000200000500000,
000000000008000000000000100000200000100000200000,
500000000000000000000000000000000008000000700000,
000000000000000000000000000000000000800000000000,
#GOGOSTART
#SCROLL 1
100100200000100000200200100000200000100000200200,
100000200000100100200000000000200200200200200000,
100100200000100000200200100000200000100000200200,
100000200000100000200200100000200000000000200000,
100100100000100000200200100100100000100000200200,
100000200000100100200000100000200200200200200000,
100200100000200000100200100200100000200000100200,
100200100000200000100200100200100200100000200000,
100200100000200000100200100200100000200000100200,
100200100000100200100000200000200200200200200000,
100100200000100000200200100100200000100000200200,
100100200000100000200200100100200200200200200200,
#GOGOEND
100000000000000000000000200200200200200200200000,
300000000000300000000000300000000000000000000000,
#GOGOSTART
100100100000200000200000000000100000200000200000,
100100100000200000100000000000100000200000100000,
100100100000200000200000000000100000200000200000,
100000000000300000000000300000000000300000000000,
200100100000200000200100200000100000200000100000,
200100100000200000100100200000100000200000100000,
200100100000200000100100200100100100200100100100,
200000200000000000200000200000000000200000200000,
100000200000200000100000200000200000100100200000,
200000100100200000200000100100200100200000100100,
200100200100100100200100200000000200000000200000,
#GOGOEND
#BPMCHANGE 190
#SCROLL 1.18
000000101000
#GOGOSTART
#BPMCHANGE 225
#SCROLL 1
400000000000000000000000000000000000,
#GOGOEND
#END

COURSE:Hard
LEVEL:7
BALLOON:14,14,26,9
SCOREDIFF:0
#START
300000000000000000000000000000000000000000000000,
300000000000300000000000300000000000000000000000,
#GOGOSTART
100000100000200000200000000000100000200000000000,
100000100000100000200000000000100000200000000000,
100000100000200000200000000000100000200000000000,
100000000000300000000000300000000000300000000000,
100000100000200000200000000000100000200000000000,
100000100000100000200000000000100000200000000000,
100000100000200000200000100000200000100000200000,
300000000000300000000000300000000000000000000000,
#GOGOEND
100000100000000000100000200000000000200000200000,
100000000000100000000000200000200000200000000000,
100000100000000000100000200000000000200000200000,
100000000000100000000000200000200000200000200000,
100000100000000000100000200000000000200000200000,
100000000000100000000000200000200000200000000000,
100000100000000000100000200000000000200000200000,
100000000000100000000000200000200000200000200000,
100000100000200000200000100000000000200000000000,
100000000000200000000000200000200000200000200000,
100000000000200000000000100000000000200000200000,
100000000000200000000000200000200000200000200000,
100000100000200000200000100000000000200000000000,
100000000000200000000000200000200000200000200000,
100000000000200000000000100000200000100000200000,
300000000000300000000000300000000000000000200000,
000000200000200000100000000000200000200000100000,
000000200000200000100000000000100000000000100000,
700000000000000000000000000000000000000000000000,
000000000000800000000000000000000000000000200000,
000000200000200000100000000000200000200000100000,
000000200000200000100000200000000000200000000000,
700000000000000000000000000000000000000000000000,
000000000000800000000000100000200000100000200000,
100000000000000000000000100000100000200000200000,
000000000000000000000000100000200000100000200000,
100000000000000000000000100000100000200000200000,
000000000000000000000000100000200000100000200000,
500000000000000000000000000000000000000000000000,
000000000000000000000000000000000008000000000000,
000000000000000000000000000000000000000000000000,
000000000000000000000000000000000000000000000000,
#GOGOSTART
100000100000200000200000000000100000200000000000,
100000100000100000200000000000100000200000000000,
100000100000200000200000000000100000200000000000,
100000000000300000000000300000000000300000000000,
100000100000200000200000000000100000200000000000,
100000100000100000200000000000100000200000000000,
500000000000000000000000000000000008000000000000,
#GOGOEND
#BPMCHANGE 158.82
#SCROLL 1.42
300000000000
#BPMCHANGE 200
#SCROLL 1.12
000000000000000000000000
#BPMCHANGE 225
#SCROLL 0.75
000000000000,
100000000000000000000000000000000000000000000000,
000000000000200000002000000000002000000000000000,
100000000000000000000000100000000000200000000000,
100000000000000000002000000000000000000000000000,
100000001000000000002000000000000000000000000000,
000000020000200000010000100000000000200000000000,
100000200002000000000000001000000002000000000000,
100000000000000000002000000000000000000000000000,
100010000000000000001000100000000000000010001000,
000000000000100010000000000000001000100000000000,
000010001000000000000000100010000000000000001000,
100000000000000000000000000000000000000000000000,
7,
,
0008,
#SCROLL 0.87
200000200000200000200000100000100000100000300000,
000000000000000000000000100000100000200000200000,
000000000000000000000000100000200000100000200000,
300000000000000000000000100000100000200000200000,
000000000000000000000000100000200000100000200000,
500000000000000000000000000000000008000000700000,
000000000000000000000000000000000000800000000000,
#GOGOSTART
#SCROLL 1
100000200000200000100000000000200000200000100000,
000000100000000000300000000000000000000000000000,
100000100000200000100000000000100000200000100000,
000000100000200000100000000000400000000000000000,
100000200000200000100000000000200000200000100000,
000000100000000000300000000000000000000000000000,
100000100000200000100000000000100000200000100000,
000000100000200000100000000000400000000000000000,
100000200000200000100000000000200000200000100000,
000000100000000000300000000000000000000000000000,
100000100000200000100000000000100000200000100000,
000000100000200000100000000000400000000000000000,
#GOGOEND
300000000000000000000000000000000000000000000000,
300000000000300000000000300000000000000000000000,
#GOGOSTART
100000100000200000200000000000100000200000000000,
100000100000100000200000000000100000200000000000,
100000100000200000200000000000100000200000000000,
100000000000300000000000300000000000300000000000,
100000100000200000200000000000100000200000000000,
100000100000100000200000000000100000200000000000,
100000100000200000200000100000200000100000200000,
100000100000000000100000100000000000100000100000,
000000100000100000000000200000200000000000200000,
200000000000200000200000000000200000200000000000,
100000200000000000100000200000000200000000200000,
#GOGOEND
#BPMCHANGE 190
#SCROLL 1.18
000000000000
#GOGOSTART
#BPMCHANGE 225
#SCROLL 1
400000000000000000000000000000000000,
#GOGOEND
#END

COURSE:Normal
LEVEL:6
BALLOON:8,8,8,8,19,19
SCOREDIFF:0
#START
300000000000000000000000000000000000000000000000,
300000000000300000000000300000000000000000000000,
#GOGOSTART
100000000000100000100000000000000000200000000000,
100000000000200000000000000000000000200000000000,
100000000000100000100000000000000000200000000000,
000000000000300000000000300000000000300000000000,
100000000000100000100000000000000000200000000000,
100000000000200000000000000000000000200000000000,
500000000000000000000000000000000008000000000000,
300000000000300000000000300000000000000000000000,
#GOGOEND
100000000000000000000000200000000000000000000000,
000000000000100000000000200000000000200000000000,
100000000000000000000000200000000000000000000000,
100000000000100000000000100000000000000000000000,
100000000000000000000000200000000000000000000000,
000000000000100000000000200000000000200000000000,
100000000000000000000000200000000000000000000000,
100000000000100000000000200000000000200000000000,
100000000000200000000000000000000000200000000000,
000000000000200000000000200000200000200000000000,
100000000000200000000000000000000000200000000000,
000000000000100000000000100000100000100000000000,
100000000000200000000000000000000000200000000000,
000000000000200000000000200000200000200000000000,
500000000000000000000000000000000008000000000000,
300000000000300000000000300000000000000000200000,
000000200000200000200000000000200000200000200000,
000000200000200000200000000000200000000000200000,
700000000000000000000000000000000000000000000000,
000000000000800000000000000000000000000000200000,
000000200000200000200000000000200000200000200000,
000000200000200000200000200000000000200000000000,
700000000000000000000000000000000000000000000000,
000000000000800000000000100000100000100000000000,
100000000000000000000000200000000000200000200000,
000000000000000000000000100000100000100000000000,
100000000000000000000000200000000000200000200000,
000000000000000000000000100000100000100000000000,
500000000000000000000000000000000000000000000000,
000000000000000000000000000000000008000000000000,
000000000000000000000000000000000000000000000000,
000000000000000000000000000000000000000000000000,
#GOGOSTART
100000000000100000100000000000000000200000000000,
100000000000200000000000000000000000200000000000,
100000000000100000100000000000000000200000000000,
000000000000300000000000300000000000300000000000,
100000000000100000100000000000000000200000000000,
100000000000200000000000000000000000200000000000,
500000000000000000000000000000000008000000000000,
#GOGOEND
#BPMCHANGE 158.82
#SCROLL 1.42
300000000000
#BPMCHANGE 200
#SCROLL 1.12
000000000000000000000000
#BPMCHANGE 225
#SCROLL 0.75
000000000000,
700000000000000000000000000000000000000000000000,
000000000000800000000000000000000000000000000000,
700000000000000000000000000000000000000000000000,
000000000000800000000000000000000000000000000000,
000000000000200000000000000000000000200000000000,
000000020000200000000000200000000000200000000000,
000000000000200000000000000000000000200000000000,
200000000000000000002000000000000000000000000000,
300000000000000000001000000000000000000010000000,
000000000000100000000000000000001000000000000000,
000010000000000000000000100000000000000000001000,
000000000000000000000000000000000000000000000000,
700000000000000000000000000000000000000000000000,
000000000000000000000000000000000000000000000000,
000000000000000000000000000000000000800000000000,
#SCROLL 0.87
000000000000000000000000000000000000000000300000,
000000000000000000000000100000000000200000200000,
000000000000000000000000100000100000100000000000,
300000000000000000000000100000000000200000200000,
000000000000000000000000100000100000100000000000,
400000000000000000000000000000000000000000200000,
000000000000000000000000000000000000000000000000,
#GOGOSTART
#SCROLL 1
100000000000100000100000000000100000100000200000,
000000200000000000200000000000000000000000000000,
100000000000100000100000000000100000100000100000,
000000100000100000100000000000200000000000000000,
100000000000100000100000000000100000100000200000,
000000200000000000200000000000000000000000000000,
100000000000100000100000000000100000100000100000,
000000100000100000100000000000200000000000000000,
100000000000100000100000000000100000100000200000,
000000200000000000200000000000000000000000000000,
100000000000100000100000000000100000100000100000,
000000100000100000100000000000200000000000000000,
#GOGOEND
300000000000000000000000000000000000000000000000,
300000000000300000000000300000000000000000000000,
#GOGOSTART
100000000000100000100000000000000000200000000000,
100000000000200000000000000000000000200000000000,
100000000000100000100000000000000000200000000000,
000000000000300000000000300000000000300000000000,
100000000000100000100000000000000000200000000000,
100000000000200000000000100000100000200000000000,
500000000000000000000000000000000008000000000000,
900000000000000000000000000000000000000000000000,
000000000000000000000000000000000000000000000000,
000000000000000000000000000000000000800000000000,
000000000000000000000000000000000000000000000000,
#GOGOEND
#BPMCHANGE 190
#SCROLL 1.18
000000000000
#GOGOSTART
#BPMCHANGE 225
#SCROLL 1
300000000000000000000000000000000000,
#GOGOEND
#END

COURSE:Easy
LEVEL:5
BALLOON:7,7,6,6,16,16
SCOREDIFF:0
#START
300000000000000000000000000000000000000000000000,
300000000000300000000000300000000000000000000000,
#GOGOSTART
100000000000100000000000000000000000200000000000,
000000000000200000000000000000000000200000000000,
100000000000100000000000000000000000200000000000,
000000000000300000000000300000000000300000000000,
100000000000100000000000000000000000200000000000,
000000000000200000000000000000000000200000000000,
500000000000000000000000000000000008000000000000,
300000000000300000000000300000000000000000000000,
#GOGOEND
100000000000000000000000200000000000000000000000,
000000000000200000000000200000000000000000000000,
000000000000000000000000200000000000000000000000,
100000000000100000000000100000000000000000000000,
100000000000000000000000200000000000000000000000,
000000000000200000000000200000000000000000000000,
000000000000000000000000200000000000000000000000,
100000000000100000000000100000000000000000000000,
100000000000200000000000000000000000200000000000,
000000000000200000000000200000000000200000000000,
000000000000200000000000000000000000200000000000,
000000000000100000000000100000000000100000000000,
100000000000200000000000000000000000200000000000,
000000000000200000000000200000000000200000000000,
500000000000000000000000000000000008000000000000,
300000000000300000000000300000000000000000200000,
000000000000000000200000000000000000000000200000,
000000000000000000200000000000000000000000000000,
700000000000000000000000000000000000000000000000,
000000000000800000000000000000000000000000200000,
000000000000000000200000000000000000000000200000,
000000000000000000200000000000000000000000000000,
700000000000000000000000000000000000000000000000,
000000000000800000000000000000000000000000000000,
100000000000000000000000200000000000000000200000,
000000000000000000000000100000000000100000000000,
100000000000000000000000200000000000000000200000,
000000000000000000000000100000000000100000000000,
500000000000000000000000000000000000000000000000,
000000000000000000000000000000000008000000000000,
000000000000000000000000000000000000000000000000,
000000000000000000000000000000000000000000000000,
#GOGOSTART
100000000000100000000000000000000000200000000000,
000000000000200000000000000000000000200000000000,
100000000000100000000000000000000000200000000000,
000000000000300000000000300000000000300000000000,
100000000000100000000000000000000000200000000000,
000000000000200000000000000000000000200000000000,
500000000000000000000000000000000008000000000000,
#GOGOEND
#BPMCHANGE 158.82
#SCROLL 1.42
300000000000
#BPMCHANGE 200
#SCROLL 1.12
000000000000000000000000
#BPMCHANGE 225
#SCROLL 0.75
000000000000,
700000000000000000000000000000000000000000000000,
000000000000800000000000000000000000000000000000,
700000000000000000000000000000000000000000000000,
000000000000800000000000000000000000000000000000,
000000000000200000000000000000000000200000000000,
000000000000200000000000200000000000000000000000,
000000000000200000000000000000000000200000000000,
200000000000000000000000000000000000000000000000,
300000000000000000001000000000000000000010000000,
000000000000100000000000000000001000000000000000,
000010000000000000000000100000000000000000001000,
000000000000000000000000000000000000000000000000,
700000000000000000000000000000000000000000000000,
000000000000000000000000000000000000000000000000,
000000000000000000000000000000000000800000000000,
#SCROLL 0.87
000000000000000000000000000000000000000000300000,
000000000000000000000000000000000000000000100000,
000000000000000000000000000000000000000000000000,
300000000000000000000000000000000000000000100000,
000000000000000000000000000000000000000000000000,
400000000000000000000000000000000000000000200000,
000000000000000000000000000000000000000000000000,
#GOGOSTART
#SCROLL 1
100000000000000000100000000000000000000000200000,
000000200000000000200000000000000000000000000000,
100000000000000000100000000000000000000000100000,
000000000000000000100000000000100000000000000000,
100000000000000000100000000000000000000000200000,
000000200000000000200000000000000000000000000000,
100000000000000000100000000000000000000000100000,
000000000000000000100000000000100000000000000000,
100000000000000000100000000000000000000000200000,
000000200000000000200000000000000000000000000000,
100000000000000000100000000000000000000000100000,
000000000000000000100000000000100000000000000000,
#GOGOEND
300000000000000000000000000000000000000000000000,
300000000000300000000000300000000000000000000000,
#GOGOSTART
100000000000100000000000000000000000200000000000,
000000000000200000000000000000000000200000000000,
100000000000100000000000000000000000200000000000,
000000000000300000000000300000000000300000000000,
100000000000100000000000000000000000200000000000,
100000000000200000000000100000000000200000000000,
500000000000000000000000000000000008000000000000,
9,
,
0008,
,
#GOGOEND
#BPMCHANGE 190
#SCROLL 1.18
000000000000
#GOGOSTART
#BPMCHANGE 225
#SCROLL 1
300000000000000000000000000000000000,
#GOGOEND
#END
