//TJADB Project
TITLE:Usatei
TITLEJA:ウサテイ
SUBTITLE:--beatMARIO feat. Amane/Touhou Project
SUBTITLEJA:東方Projectアレンジ あまね+ビートまりお (COOL&CREATE)
BPM:190
WAVE:Usatei.ogg
OFFSET:-0.487
DEMOSTART:62.539

COURSE:Oni
LEVEL:9
BALLOON:2,3,5,5,12,2
SCOREINIT:1440
SCOREDIFF:0
#START
#BARLINEOFF
#MEASURE 1/8
22,
#BARLINEON
#MEASURE 4/4
200000200200200000200000200000200200200000200000,
100000200200200000100000100000000000200000100000,
100000200200200000100000200000200000200000000000,
100000200200200000100000100000000000200000100000,
100000200200200000200000100000100000100000000000,
100000200200200000100000100000000000200000100000,
100000200200200000100000200000200000200000000000,
100000200200200000100000100000000000200000100000,
400000300000400000400000300000000000000000200200,
100000200200200000100000100000200200200000100000,
100000200200200000100000200000200000200000000000,
100000200200200000100000100000200200200000100000,
100000200200200000200000100000100000100000000000,
100000200200200000100000100000200200200000100000,
100000200200200000100000200000200000200000000000,
100000200200200000100000100000200200200000100000,
400000300000400000300000300000000000700000800000,
100000200000100000200000100000200200100000200000,
100000200000100000200000100000200000100000100000,
100000200000100000200000100000200200100000200000,
100000200000100000200000100000100100100000100000,
100000200000100000200000100000200200100000200000,
100000200000100000200000100000200000100000100000,
100000200000100000200000100000200200100000200000,
100000200000100000200000100000100100100000100000,
100000200000100000200000100000200200100000000000,
#SCROLL 1.5
700000000000800000000000
#SCROLL 1
100000200000100000100000,
100000200000100000000000
#SCROLL 1.5
300000400000000000000000,
#SCROLL 1
100000200000100000200000100000100100100000100000,
100000200000100000200000100000200200100000200000,
000000
#SCROLL 1.5
400000400000000000
#SCROLL 1
100000200000100000100000,
100000200000100000200000100000200200100000200000,
100000200000100000200000100000100100100000100000,
100000200200200000200000100000200200200000100000,
#SCROLL 1.5
700000000000000000800000700000000000000000800000,
#SCROLL 1
100000200200200000200000100000200200200000200000,
100000100000200000200000100000200000100000000000,
100000200200200000200000100000200200200000100000,
200000200000100000100000200000000000100000000000,
100000200200200000200000100000200200200000200000,
100000100000200000200000100000200200200000200000,
100000100100200000200000100000100100200000100000,
200000200000100000100000200000100100200000100000,
100000100100200000200000100000100100200000200000,
100000100000200000200000100000100000200000200000,
100000100100200000200000100000100100200000100000,
200000200000100000100000200000
#SCROLL 1.5
300000000000300000,
#SCROLL 1
000000100000200000200000100000100000200000200000,
#SCROLL 1.5
600000000000000000000000000000000008000000000000,
#GOGOSTART
#SCROLL 1
100200000200100000200000100000100000200000100000,
#SCROLL 1.03
100100100000200000100000000000100000100000200000,
#SCROLL 1.06
100200000200100000200000100000100000200000200000,
#SCROLL 1.09
300000000000300000000000300000000000300000000000,
#SCROLL 1.13
100200000200100000200000100000100000200000100000,
#SCROLL 1.16
100100100000200000100000000000100000100000200000,
#SCROLL 1.19
100200000200100000200000100000100000200000200000,
#SCROLL 1.22
300000000000300000000000400000400000400000000000,
#SCROLL 1.25
100200000200100000200000100000100000200000100000,
#SCROLL 1.28
100100100000200000100000000000100000100000200000,
#SCROLL 1.31
100200000200100000200000100000100000200200200000,
#SCROLL 1.34
300000000000300000000000300000000000300000000000,
#SCROLL 1.38
100200000200100000200000100000100000200000100000,
#SCROLL 1.41
100100100000200000100000000000100000100000200000,
#SCROLL 1.44
100200000200100000200000100000100000200200200000,
#SCROLL 1.47
300000000000300000000000300000300000300000000000,
#SCROLL 1.5
100200000200100000200000100000100000200000100000,
#SCROLL 1.53
100100100000200000100000000000100000100000200000,
#SCROLL 1.56
100200000200100000200000100000100000200000200000,
#SCROLL 1.59
300000000000300000000000300000000000300000000000,
#SCROLL 1.63
100200000200100000200000100000100000200000100000,
#SCROLL 1.66
100100100000200000100000000000100000100000200000,
#SCROLL 1.69
100200000200100000200000100000100000200000200000,
#SCROLL 1.72
300000000000300000000000400000400000400000000000,
#SCROLL 1.75
100200000200100000200000100000100000200000100000,
#SCROLL 1.78
100100100000200000100000000000100000100000200000,
#SCROLL 1.81
100200000200100000200000100000100000200200200000,
#SCROLL 1.84
300000000000300000000000300000000000300000000000,
#SCROLL 1.88
100200000200100000200000100000100000200000100000,
#SCROLL 1.91
100100100000200000100000000000100000100000200000,
#SCROLL 1.94
100200000200100000200000100000100000200200200000,
#SCROLL 1.97
300000000000000000300000000000000000300000000000,
#SCROLL 2
700000000000000000000000000000000000000000000000,
#SCROLL 1
800000000000000000000000000000000000000000000000,
100000200200200000100000100000200200200000100000,
100000200200200000100000100000100000100000000000,
100000200200200000100000100000200200200000100000,
100000200200200000100000200000200000
#BPMCHANGE 175
#SCROLL 1.08571428571
200000000000,
#BPMCHANGE 190
#SCROLL 1
100000200200200000100000100000200200200000100000,
400000300000400000300000300000000000700000800000,
#GOGOEND
#END

COURSE:Hard
LEVEL:7
BALLOON:3,4,4,10
SCOREINIT:2140
SCOREDIFF:0
#START
#MEASURE 1/8
,
#MEASURE 4/4
000000000000000000000000000000000000000000000000,
100000000000200000100000100000000000200000100000,
100000000000200000100000200000200000200000000000,
100000000000200000100000100000000000200000100000,
100000000000200000100000100000100000100000000000,
100000000000200000100000100000000000200000100000,
100000000000200000100000200000200000200000000000,
100000000000200000100000100000000000200000100000,
400000400000300000300000300000000000000000000000,
100000100100100000100000100000000000200000100000,
100000000000200000100000200000200000200000000000,
100000100100100000100000100000000000200000100000,
100000000000200000100000100000100000100000000000,
100000100100100000100000100000000000200000100000,
100000000000200000100000200000200000200000000000,
100000100100100000100000100000000000200000100000,
400000400000300000300000300000000000400000000000,
100000000000100000200000100000200000100000000000,
100000000000100000200000100000200000100000100000,
100000000000100000200000100000200000100000000000,
100000000000100000200000100000100100100000000000,
100000000000100000200000100000200000100000000000,
100000000000100000200000100000200000100000100000,
100000000000100000200000100000200000100000000000,
100000000000100000200000100000200200200000000000,
100000000000100000200000100000200000100000000000,
700000000000800000000000100000200000100000100000,
100000000000100000000000300000400000000000000000,
100000000000100000200000100000100100100000000000,
100000000000100000200000100000200000100000100000,
000000400000400000000000100000200000100000000000,
100000000000100000200000100000200000100000000000,
100000000000100000200000100000100100100000000000,
100000000000100000200000100000200000000000200000,
700000000000000000800000700000000000000000800000,
100000000000200000200000100000100000000000200000,
100000100000200000200000100000200000100000000000,
100000000000200000200000100000100000000000100000,
200000200000100000100000200000000000100000000000,
100000000000200000200000100000100000000000200000,
100000100000200000200000100000200200200000000000,
100000100100100000100000200000200000000000100000,
200000200000100000100000200000000000100000000000,
100000100100100000100000200000200000000000200000,
100000100000200000200000100000000000200000000000,
100000100100100000100000200000200000000000100000,
200000200000100000000000200000300000000000300000,
500000000000000000000000000000000000000008000000,
600000000000000000000000000000000000000008000000,
#GOGOSTART
100000000000100000000000100000100000200000100000,
#SCROLL 1.03
100000100000200000100000000000100000100000200000,
#SCROLL 1.06
100000000000100000000000100000100000200000100000,
#SCROLL 1.09
300000000000300000000000300000000000300000000000,
#SCROLL 1.13
100000000000100000000000100000100000200000100000,
#SCROLL 1.16
100000100000200000100000000000100000100000200000,
#SCROLL 1.19
100000000000100000000000100000100000200000100000,
#SCROLL 1.22
300000000000300000000000400000400000400000000000,
#SCROLL 1.25
100000000000100000000000100000100000200000100000,
#SCROLL 1.28
100000100000200000100000000000100000100000200000,
#SCROLL 1.31
100000000000100000000000100000100000200000100000,
#SCROLL 1.34
300000000000300000000000300000000000300000000000,
#SCROLL 1.38
100000000000100000000000100000100000200000100000,
#SCROLL 1.41
100000100000200000100000000000100000100000200000,
#SCROLL 1.44
100000000000100000000000100000100000200000100000,
#SCROLL 1.47
300000000000300000000000300000300000300000000000,
#SCROLL 1.5
500000000000000000000000000008000000000000000000,
#SCROLL 1.53
100000100000200000100000000000100000200000000000,
#SCROLL 1.56
500000000000000000000000000008000000000000000000,
#SCROLL 1.59
300000000000300000000000300000000000300000000000,
#SCROLL 1.63
500000000000000000000000000008000000000000000000,
#SCROLL 1.66
100000100000200000100000000000100000200000000000,
#SCROLL 1.69
500000000000000000000000000008000000000000000000,
#SCROLL 1.72
300000000000300000000000400000400000400000000000,
#SCROLL 1.75
500000000000000000000000000008000000000000000000,
#SCROLL 1.78
100000100000200000100000000000100000200000000000,
#SCROLL 1.81
500000000000000000000000000008000000000000000000,
#SCROLL 1.84
300000000000300000000000300000000000300000000000,
#SCROLL 1.88
500000000000000000000000000008000000000000000000,
#SCROLL 1.91
100000100000200000100000000000100000200000000000,
#SCROLL 1.94
600000000000000000000000000000000000000008000000,
#SCROLL 1.97
300000000000000000300000000000000000300000000000,
#SCROLL 2
700000000000000000000000000000000000000000000000,
#SCROLL 1
000000000000000000000000800000000000000000000000,
100000100100100000100000100000000000200000100000,
100000000000200000100000100000100000100000000000,
100000100100100000100000100000000000200000100000,
100000000000200000100000200000200000200000000000,
100000100100100000100000100000000000200000100000,
400000400000300000300000300000000000000000000000,
#GOGOEND
#END

COURSE:Normal
LEVEL:5
BALLOON:7,3,3,3,6,7
SCOREINIT:4320
SCOREDIFF:0
#START
#MEASURE 1/8
,
#MEASURE 4/4
000000000000000000000000000000000000000000000000,
100000000000000000000000100000000000000000000000,
100000000000000000000000200000000000200000000000,
100000000000000000000000100000000000000000000000,
100000000000000000000000100000000000100000000000,
100000000000000000000000100000000000000000000000,
100000000000000000000000200000000000200000000000,
100000000000000000000000100000000000000000000000,
300000000000300000000000300000000000000000000000,
100000000000200000000000100000000000200000000000,
100000000000100000000000200000200000200000000000,
100000000000200000000000100000000000200000000000,
100000000000100000000000100000100000100000000000,
100000000000200000000000100000000000200000000000,
100000000000100000000000200000200000200000000000,
900000000000000000000000000000000000000000000000,
000000000000000000000000800000000000000000000000,
200000000000000000000000000000000000000000000000,
200000000000000000000000200000000000000000000000,
200000000000000000000000000000000000000000000000,
200000000000000000000000200000000000200000000000,
200000000000000000000000000000000000000000000000,
200000000000000000000000200000000000000000000000,
200000000000000000000000000000000000000000000000,
200000000000000000000000200000000000200000000000,
100000000000000000000000100000000000000000000000,
700000000000800000000000000000000000000000000000,
100000000000000000000000300000400000000000000000,
100000000000000000000000100000000000000000000000,
100000000000000000000000100000000000000000000000,
100000000000000000000000100000000000100000000000,
100000000000000000000000100000000000000000000000,
100000000000000000000000100000000000100000000000,
100000000000000000000000200000000000000000000000,
700000000000000000800000700000000000000000800000,
100000000000000000000000200000000000000000000000,
100000000000200000000000200000000000000000000000,
100000000000000000000000200000000000000000000000,
200000000000100000000000200000000000000000000000,
100000000000000000000000100000000000000000000000,
700000000000000000000000000000000000800000000000,
100000000000200000000000100000100000000000000000,
200000000000100000000000200000000000000000000000,
100000000000200000000000100000100000000000000000,
100000000000200000000000200000000000000000000000,
100000000000200000000000100000100000000000000000,
200000000000100000000000200000000000000000000000,
500000000000000000000000000000000000000008000000,
600000000000000000000000000000000000000008000000,
#GOGOSTART
100000000000100000000000100000100000100000000000,
#SCROLL 1.03
100000000000100000100000000000000000000000000000,
#SCROLL 1.06
100000000000100000000000100000100000100000000000,
#SCROLL 1.09
300000000000300000000000300000000000300000000000,
#SCROLL 1.13
100000000000100000000000100000100000100000000000,
#SCROLL 1.16
100000000000100000100000000000000000000000000000,
#SCROLL 1.19
100000000000100000000000100000100000100000000000,
#SCROLL 1.22
300000000000300000000000300000300000300000000000,
#SCROLL 1.25
100000000000100000000000100000100000100000000000,
#SCROLL 1.28
100000000000100000100000000000000000000000000000,
#SCROLL 1.31
100000000000100000000000100000100000100000000000,
#SCROLL 1.34
300000000000300000000000300000000000300000000000,
#SCROLL 1.38
100000000000100000000000100000100000100000000000,
#SCROLL 1.41
100000000000100000100000000000000000000000000000,
#SCROLL 1.44
100000000000100000000000100000100000100000000000,
#SCROLL 1.47
300000000000300000000000300000000000300000000000,
#SCROLL 1.5
500000000000000000000000000000000000000008000000,
#SCROLL 1.53
100000000000200000000000100000000000200000000000,
#SCROLL 1.56
500000000000000000000000000000000000000008000000,
#SCROLL 1.59
300000000000300000000000300000000000300000000000,
#SCROLL 1.63
500000000000000000000000000000000000000008000000,
#SCROLL 1.66
100000000000200000000000100000000000200000000000,
#SCROLL 1.69
500000000000000000000000000000000000000008000000,
#SCROLL 1.72
300000000000300000000000300000300000300000000000,
#SCROLL 1.75
500000000000000000000000000000000000000008000000,
#SCROLL 1.78
100000000000200000000000100000000000200000000000,
#SCROLL 1.81
500000000000000000000000000000000000000008000000,
#SCROLL 1.84
300000000000300000000000300000000000300000000000,
#SCROLL 1.88
500000000000000000000000000008000000000000000000,
#SCROLL 1.91
100000000000200000000000100000000000200000000000,
#SCROLL 1.94
600000000000000000000000000000000000000008000000,
#SCROLL 1.97
300000000000000000300000000000000000300000000000,
#SCROLL 2
900000000000000000000000000000000000000000000000,
#SCROLL 1
000000000000000000000000800000000000000000000000,
100000000000000000000000100000000000000000000000,
100000000000000000000000100000000000100000000000,
100000000000000000000000100000000000000000000000,
100000000000000000000000200000000000200000000000,
100000000000000000000000100000000000000000000000,
300000000000300000000000300000000000000000000000,
#GOGOEND
#END

COURSE:Easy
LEVEL:3
BALLOON:5,2,4,5
SCOREINIT:6800
SCOREDIFF:0
#START
#MEASURE 1/8
,
#MEASURE 4/4
000000000000000000000000000000000000000000000000,
100000000000000000000000000000000000000000000000,
000000000000000000000000200000000000000000000000,
100000000000000000000000000000000000000000000000,
000000000000000000000000100000000000000000000000,
100000000000000000000000000000000000000000000000,
000000000000000000000000200000000000000000000000,
100000000000000000000000000000000000000000000000,
300000000000300000000000300000000000000000000000,
100000000000000000000000100000000000000000000000,
100000000000000000000000100000000000100000000000,
100000000000000000000000200000000000000000000000,
100000000000000000000000100000000000100000000000,
100000000000000000000000100000000000000000000000,
100000000000000000000000100000000000100000000000,
900000000000000000000000000000000000000000000000,
000000000000000000000000800000000000000000000000,
200000000000000000000000000000000000000000000000,
200000000000000000000000000000000000000000000000,
200000000000000000000000000000000000000000000000,
200000000000000000000000200000000000000000000000,
200000000000000000000000000000000000000000000000,
200000000000000000000000000000000000000000000000,
200000000000000000000000000000000000000000000000,
200000000000000000000000200000000000000000000000,
100000000000000000000000000000000000000000000000,
700000000000800000000000000000000000000000000000,
100000000000000000000000400000000000000000000000,
100000000000000000000000000000000000000000000000,
100000000000000000000000000000000000000000000000,
100000000000000000000000000000000000000000000000,
100000000000000000000000000000000000000000000000,
100000000000000000000000100000000000000000000000,
100000000000000000000000000000000000000000000000,
300000000000000000000000300000000000000000000000,
100000000000000000000000000000000000000000000000,
200000000000000000000000200000000000000000000000,
100000000000000000000000000000000000000000000000,
100000000000000000000000100000000000000000000000,
100000000000000000000000000000000000000000000000,
700000000000000000000000000000000000800000000000,
100000000000000000000000100000000000000000000000,
200000000000000000000000200000000000000000000000,
100000000000000000000000100000000000000000000000,
200000000000000000000000200000000000000000000000,
100000000000000000000000100000000000000000000000,
200000000000000000000000200000000000000000000000,
600000000000000000000000000000000000000000000000,
000000000000000000000000000008000000000000000000,
#GOGOSTART
100000000000100000000000100000000000000000000000,
#SCROLL 1.03
100000000000000000100000000000000000000000000000,
#SCROLL 1.06
100000000000100000000000100000000000000000000000,
#SCROLL 1.09
300000000000300000000000300000000000000000000000,
#SCROLL 1.13
100000000000100000000000100000000000000000000000,
#SCROLL 1.16
100000000000000000100000000000000000000000000000,
#SCROLL 1.19
100000000000100000000000100000000000000000000000,
#SCROLL 1.22
300000000000300000000000300000000000000000000000,
#SCROLL 1.25
100000000000100000000000100000000000000000000000,
#SCROLL 1.28
100000000000000000100000000000000000000000000000,
#SCROLL 1.31
100000000000100000000000100000000000000000000000,
#SCROLL 1.34
300000000000300000000000300000000000000000000000,
#SCROLL 1.38
100000000000100000000000100000000000000000000000,
#SCROLL 1.41
100000000000000000100000000000000000000000000000,
#SCROLL 1.44
100000000000100000000000100000000000000000000000,
#SCROLL 1.47
300000000000300000000000300000000000000000000000,
#SCROLL 1.5
500000000000000000000000000008000000000000000000,
#SCROLL 1.53
100000000000100000000000100000000000000000000000,
#SCROLL 1.56
500000000000000000000000000008000000000000000000,
#SCROLL 1.59
300000000000300000000000300000000000000000000000,
#SCROLL 1.63
500000000000000000000000000008000000000000000000,
#SCROLL 1.66
100000000000100000000000100000000000000000000000,
#SCROLL 1.69
500000000000000000000000000008000000000000000000,
#SCROLL 1.72
300000000000300000000000300000000000000000000000,
#SCROLL 1.75
500000000000000000000000000008000000000000000000,
#SCROLL 1.78
100000000000100000000000100000000000000000000000,
#SCROLL 1.81
500000000000000000000000000008000000000000000000,
#SCROLL 1.84
300000000000300000000000300000000000000000000000,
#SCROLL 1.88
500000000000000000000000000008000000000000000000,
#SCROLL 1.91
100000000000100000000000100000000000000000000000,
#SCROLL 1.94
600000000000000000000000000000000000000000000000,
#SCROLL 1.97
000000000000000000000000000008000000000000000000,
#SCROLL 2
900000000000000000000000000000000000000000000000,
#SCROLL 1
000000000000000000000000800000000000000000000000,
100000000000000000000000200000000000000000000000,
100000000000000000000000100000000000100000000000,
100000000000000000000000100000000000000000000000,
100000000000000000000000100000000000100000000000,
100000000000000000000000200000000000000000000000,
300000000000300000000000300000000000000000000000,
#GOGOEND
#END
