//TJADB Project
TITLE:Day by Day!
TITLEJA:Day by Day!
SUBTITLE:--TONES Project feat. MANA
SUBTITLEJA:
BPM:161
WAVE:Day by Day!.ogg
OFFSET:-1.702
DEMOSTART:60.580 //shinuchi:
4020/2640/1690/1470/1140

COURSE:Edit
LEVEL:9
BALLOON:8
SCOREINIT:390,1140
SCOREDIFF:93
#START
1022202011201020,
1022202010221020,
1022202011201020,
1021001000221020,
3011112030112220,
3011212030112222,
1020102210102030,
0011201110221000, //8
1002102010102010,
1002102022022020,
1002102010102010,
1002102022022022,
1002102010102010,
1002102022022020,
1002102011102010,
1022103000221122, //16
1002102012102010,
1002102012022022,
1002102012102010,
1021021012022022,
1102102012102010,
1102102012022022,
1102102012102022,
500000000000000000000000000008000000200000000000, //24
3022201020001010,
0022101020102000,
1022201020001010,
0022101210102210,
3022201020001010,
0022101020102000,
1022201020001010,
0022101210101011, //32
1020102010221020,
1020102011202011,
1020102010221020,
1120203000221110,
1110111011101020,
1110111011111020,
500000000000000000000000000000000008000000000000,
3003003022222020, //40
#GOGOSTART
1002102011201022,
1011201110112011,
1002102011202210,
1021001000122030,
2002102011201022,
1011201020221020,
1022122011211020,
3003003000222222, //48
1002102011201022,
1011201110112011,
1002102011202210,
1021022012010030,
0020120210211202,
1020120211201122,
1020120210211202,
1221221010221020,
1002102011221010,
000300300000200222200200,
1021001110304030,
#GOGOEND
0022200030004000, //60
1002102012201211,
1002102012201222,
100000202020100100100100200100100200100100200100,
1001102012202022,
100000202020100200100000200200100200101010202020,
1012011022010020,
2201101022102030,
000000101010100000700000000000000000000008000000,
3003003011111010, //69
2002002000000020,
2222,
20000222,
20020222,
2002002000000020,
2002002020020020,
1002102012221220,
300000000300000000300000200200200200200200202020, //77
#GOGOSTART
1002102011201022,
1011201110112011,
1002102011222210,
1221212211210030,
0020120210211202,
1020120211201122,
1020120210211202,
1221221010221222, //85
1002102211221210,
000300300000200222200200,
1021001110304030,
0022203000006000,
000000000000000000000000000000000008000000000000,
#GOGOEND
0,
0, //92
#END

COURSE:Oni
LEVEL:8
BALLOON:15,8,15,8
SCOREINIT:490,1640
SCOREDIFF:118
#START
1020102011200020,
1020102011200020,
1020102011200020,
3003003000202000,
1110222010222010,
0022201000222010,
0010221020201070,
000000000000000000000000000000000000000008000000, //8
12010201,
1020001010200011,
12010201,
1020001010200011,
12010221,
1020001000222010,
12010221,
1020201000222220, //16
1022201000200010,
1022201022222010,
1022201000200010,
1022201022222010,
1022201000202010,
1022201000202010,
1022201110221020,
0222, //24
30012011,
0220,
10012011,
0000101022202220,
10012011,
0220,
10012027,
08, //32
1000102010201110,
1000102010201120,
1000102010201110,
1000102010201120,
500000000000000000000008000000000000100000100000,
0022102210221070,
0008,
3003003000000000, //40
#GOGOSTART
1020102011201020,
1020102011201020,
1020102011201020,
3003003000400040,
1020102011202210,
1020102011202210,
1022102010221020,
3003003000400040, //48
1022102011202210,
1022102011202211,
1022102010221020,
3003004030040030,
0020122010201020,
1020122010201020,
0020122010201022,
1021001000222020,
1022102210221010,
03300221,
1001001110304030,
#GOGOEND
0004, //60
100000000100000000200200500000000008000000100100,
100000000200000000500000000000000008000000200000,
2022221122112211,
200000000000200000500000000000000008000000200000,
2022221122112212,
2002002120020011,
200000000200000000100100200000200000101010200000,
000000000000200000700000000000000000000008000000,
3003003000000000, //69
2,
2220,
2,
2,
2,
2022,
2020202022222220,
3003003000400040, //77
#GOGOSTART
1022102011202210,
1022102011202211,
1022102010221020,
3003004030040030,
0020122010201020,
1020122010201020,
0020122010201022,
1021001000222020, //85
1022102212221010,
03300221,
100000200100000000202020100000300000400000300000,
00210030,
0,
#GOGOEND
0,
0, //92
#END

COURSE:Hard
LEVEL:7
BALLOON:12,7,12,5
SCOREINIT:450,1900
SCOREDIFF:110
#START
1020102011101000,
1020102011101000,
1020102011101000,
3003003000202000,
1020102011101010,
0022202000222020,
0011101020201070,
0008, //8
12010101,
12022201,
12010101,
11022201,
12010201,
12010201,
12010221,
1020201000222020, //16
12010201,
12011201,
12010201,
12011201,
12010221,
12010221,
1020201110222020,
0222, //24
30012011,
0220,
10012011,
0000101020202220,
10012011,
0220,
10012027,
08, //32
1000102010201110,
1000102010201110,
1000102010201110,
1000102010202220,
500000000000000000000008000000000000100000100000,
0022202220222070,
0008,
3003003000000000, //40
#GOGOSTART
1020102011101000,
1020102011101000,
1020102011101000,
4004004000000000,
1020102011102000,
1020102011102000,
1010222010102220,
3003003000000000, //48
1020102011102000,
1020102011102000,
1020102011102220,
3003003040040030,
0020102011101000,
1020102011102020,
0020102011102020,
3003003000200020,
1110222011102020,
03300221,
0000001110304030,
0004, //60
#GOGOEND
100000000100000000100000500000000008000000100100,
100000000200000000500000000000000008000000200000,
2000222022202220,
100000000000100000500000000000000008000000000000,
2220111022201110,
1002002220020011,
1002001110201020,
00270080,
3003003000000000, //69
2,
2220,
2,
2,
2,
2022,
2000202020202220,
3003003000000000, //77
#GOGOSTART
1020102011101020,
1020102011101020,
1020102011102220,
3003003040040030,
0020102011101020,
1020102011102020,
0020102011102020,
3003003000200020, //85
1110222011102020,
03300221,
0000001110304030,
00210030,
0,
#GOGOEND
0,
0, //92
#END

COURSE:Normal
LEVEL:5
BALLOON:7,7,10
SCOREINIT:490,3120
SCOREDIFF:130
#START
10101110,
10101110,
10101110,
3003003000000000,
10102220,
10102220,
10102227,
0008, //8
1011,
1022,
1011,
1022,
1022,
1022,
1022,
10110000, //16
1011,
1022,
1011,
1022,
1022,
1022,
10002022,
0111, //24
32,
0220,
12,
0220,
12,
0220,
10002022,
0, //32
10101110,
20202220,
10101110,
20202220,
500000000000000000000008000000000000100000100000,
00202027,
0008,
3003003000000000, //40
#GOGOSTART
10101110,
10101110,
10101110,
4004004000000000,
10102220,
10102220,
10102220,
3003003000000000, //48
10102220,
10102220,
10102220,
3003003040040040,
00101110,
20202220,
10102220,
3003003000000000,
10101044,
04400111,
00004044,
0, //60
#GOGOEND
10101110,
20202220,
11102220,
1110,
22201110,
22201110,
22201119,
000000000000000000000000000000000090000000000008,
0, //69
2,
22,
2,
2,
2,
22,
20202220,
3003003000000000, //77
#GOGOSTART
10201110,
10201110,
10201110,
3003003040040040,
00101110,
10201110,
10201110,
4004004000000000, //85
10101044,
04400111,
00004044,
00440030,
0,
#GOGOEND
0,
0, //92
#END

COURSE:Easy
LEVEL:3
BALLOON:6,7,7
SCOREINIT:430,4570
SCOREDIFF:118
#START
1110,
1110,
1110,
30030000,
1110,
2220,
10101007,
0008, //8
1011,
11,
1011,
11,
2022,
22,
2022,
500000000000000000000008000000000000000000000000, //16
1011,
1022,
1011,
1022,
1022,
1022,
10002002,
0111, //24
32,
02,
12,
02,
12,
02,
10002002,
0, //32
1110,
1110,
1122,
1110,
500000000000000000000008000000000000000000000000,
1111,
900000000000000000000000000000000009000000000008,
0, //40
#GOGOSTART
1110,
1122,
1122,
30030000,
1110,
1122,
1122,
30030000, //48
1110,
1122,
1122,
30004003,
0011,
1022,
2011,
500000000000000000000008000000000000000000000000,
10101003,
0300,
10004004,
0, //60
#GOGOEND
1110,
1110,
1122,
1110,
1122,
1122,
1122,
900000000000000000000000000000000009000000000008,
0, //69
2,
22,
2,
2,
2,
22,
2222,
30030000, //77
#GOGOSTART
1110,
1122,
1122,
30004004,
0011,
1022,
2011,
500000000000000000000008000000000000000000000000, //85
10101003,
0300,
10004004,
00040030,
0,
#GOGOEND
0,
0, //92
#END
