//TJADB Project
TITLE:YONA YONA DANCE
TITLEJA:YONA YONA DANCE
SUBTITLE:--Akiko Wada
SUBTITLEJA:和田アキ子
BPM:145
WAVE:YONA YONA DANCE.ogg
OFFSET:-0.455
DEMOSTART:45.075

COURSE:Oni
LEVEL:8
BALLOON:14,16
SCOREINIT:2000
SCOREDIFF:0
#START
100100000100000000100100000100000000100100100100,
100000200100000100200000000100100100200000100100,
100000200100000100200000000100100100200000100100,
100000200100000100200000000100100200200000100200,
100000200100000100200000000100100200200000100200,
100100000100000000100100000100000000100100100100,
100000200100000100200000000100100100200000100100,
100000200100000100200000000100100200200000100200,
100100000100000000100100000100100100200000100100,
100000200000100000100000000000100000100000200000,
000000100000000100000000100000100100100000200000,
100000200000100000100100000000100000200000100000,
000000100000200100000000100000100100100000200000,
100000200200100000100000000000100000100000200000,
100000100000200100000000100000100100100000200000,
100000100000200000100100000000100000200000100100,
000000400000000400000000400000100000200000100100,
100000200000100000100100000000100000200000100100,
000200100000200100000000100000100100100000200000,
100000200000100000100100000000100000200000100100,
000200100000200100000000100000100100100000200000,
100000200200100000200000100100200000100000100100,
200000200000100000200200200000200200100000200000,
100000100000200000100100100000100000200000100100,
000100200000100200000100200000100000200000100100,
100100000100000000100100000100000000100100100100,
700000000000000000000000000000000000800000000000,
#GOGOSTART
100000100100200000100100100000100100200000100100,
100000100200200000100100200200100100200000100100,
100000100100200000100100100000100100200000100200,
200000200200200000100200200000200200100200200000,
100000200200100000200000100000200200100000200000,
100000200200100000200000100000100000300000000000,
100000200100200000100200100000200100200000100200,
100000200100200000200200100100100000200000100100,
100000100100200000100100100000100100200000100100,
100000100100200000100100200200100100200000100100,
100000100100200000100100100000100100200000100100,
200000200200200000100200200000200200100200200000,
100000100000200000100000100000100000200000200000,
100000200200100000100100200000200000100000000000,
300000000000100100200000000000300000300000400000,
700000000000000000000000000000000000000000800000,
#GOGOEND
100000200100000100200000000100100100200000100100,
100000200100000100200000000100100100200000100100,
100000200100000100200000000100100200200000100200,
100000200100000100200000000100100200200000100200,
100100000100000000100100000100000000100100100100,
100000200100000100200000000100100100200000100100,
100000200100000100200000000100100100200000100100,
100000100100000100100100000100100100200100100100,
#END

COURSE:Hard
LEVEL:5
BALLOON:10
SCOREINIT:3570
SCOREDIFF:0
#START
300000000300000000300000000300000000300000000000,
100000000100000000100000000100100000100000000000,
100000000100000000100000000100100000100000000000,
100000000100000000200000000100100000100000000000,
100000000100000000200000000100100000100000000000,
100100000100000000100100000100000000300000000000,
100000000100000000100000000100100000100000000000,
100000000100000000100000000100100000100000000000,
100000000100000000200000000100100000100000100000,
100000000000200000100000000000100000000000100000,
000000200000000200000000200000100000100000200000,
100000000000200000100000000000100000200000100000,
000000200000000200000000200000100000100000200000,
100000100000200000100000000000100000200000500000,
000000000000000000000008000000100000100000200000,
100000100000200000100000000000100000000000100000,
000000400000000400000000400000100000000000200000,
100000000000200000100000000000200000000000100000,
000000200000000200000000200000100000100000200000,
100000000000200000100000000000100000200000100000,
000000200000000200000000200000100000100000200000,
100000100000200000100000100000200000500000000000,
000000000000000000000008000000100000200000100000,
000000100000100000100000000000100000200000100000,
000000400000000400000000400000000000000000000000,
300000000300000000300000000300000000300000300000,
000000000000000000000000000000000000000000000000,
#GOGOSTART
100000000000100000200000100000100000200000000000,
100000000000100000000000100000200000100000100000,
200000000000100000200000100000100000200000000000,
100000000000100000000000200000100000100000200000,
100000000000200000100000100000000000200000000000,
100000200000200000000000100000200000300000000000,
100000200000100000200000100000200000100000200000,
100000200000100000200000100000200000100000100000,
200000000000100000200000100000100000200000000000,
100000000000100000000000100000200000100000100000,
200000000000100000200000100000100000200000000000,
100000000000100000000000100000200000000000200000,
100000100000100000100000200000000000200000000000,
100000100000100000100000200000000000100000000000,
300000000000300000000000000000300000300000400000,
700000000000000000000000000000000000000000800000,
#GOGOEND
100000000100000000100000000100100000100000000000,
100000000100000000100000000100100000100000000000,
100000000100000000200000000100100000100000000000,
100000000100000000200000000100100000100000000000,
100100000100000000100100000100000000300000000000,
100000000100000000100000000100100000100000000000,
100000000100000000200000000100100000100000000000,
500000000000000000000000000000000000000000000008,
#END

COURSE:Normal
LEVEL:5
BALLOON:8
SCOREINIT:6080
SCOREDIFF:0
#START
300000000000000000300000000000000000300000000000,
100000000000000000100000000000000000100000000000,
100000000000000000100000000000000000100000000000,
100000000000000000200000000000000000100000000000,
100000000000000000200000000000000000100000000000,
300000000000000000300000000000000000300000000000,
100000000000000000100000000000000000100000000000,
100000000000000000100000000000000000100000000000,
100000000000000000200000000000000000100000000000,
100000000000100000100000000000100000000000100000,
000000000000000000000000200000000000000000000000,
100000000000100000100000000000100000000000100000,
000000000000000000000000200000000000000000000000,
100000000000100000100000000000100000000000500000,
000000000000000000000008000000000000000000000000,
100000000000100000100000000000100000000000100000,
000000400000000400000000400000000000000000000000,
100000000000100000100000000000200000000000100000,
000000000000000000000000200000000000000000000000,
100000000000100000100000000000200000000000100000,
000000000000000000000000200000000000000000000000,
100000100000000000100000100000000000500000000000,
000000000000000000000008000000000000000000100000,
000000100000000000100000000000100000000000100000,
000000400000000400000000400000000000000000000000,
300000000000000000300000000000000000300000000000,
000000000000000000000000000000000000000000000000,
#GOGOSTART
100000000000100000100000100000000000100000000000,
100000000000000000000000100000100000100000000000,
100000000000100000100000100000000000100000000000,
100000000000000000000000000000100000100000000000,
100000000000200000000000200000000000100000000000,
200000000000200000000000100000100000300000000000,
100000000000200000000000100000000000200000000000,
100000000000200000000000100000100000100000000000,
100000000000100000100000100000000000100000000000,
100000000000000000000000100000100000100000000000,
100000000000100000100000100000000000100000000000,
100000000000000000000000000000000000000000000000,
200000200000200000000000100000000000200000000000,
100000100000100000000000100000000000200000000000,
300000000000300000000000000000300000300000300000,
700000000000000000000000000000000000000000800000,
#GOGOEND
100000000000000000100000000000000000100000000000,
100000000000000000100000000000000000100000000000,
100000000000000000200000000000000000100000000000,
100000000000000000200000000000000000100000000000,
300000000000000000300000000000000000300000000000,
100000000000000000100000000000000000100000000000,
100000000000000000100000000000000000100000000000,
500000000000000000000000000000000000000000000008,
#END

COURSE:Easy
LEVEL:2
BALLOON:10,5
SCOREINIT:10710
SCOREDIFF:0
#START
300000000000000000300000000000000000300000000000,
100000000000000000000000000000000000100000000000,
100000000000000000000000000000000000100000000000,
100000000000000000000000000000000000200000000000,
200000000000000000000000000000000000100000000000,
300000000000000000300000000000000000300000000000,
100000000000000000000000000000000000100000000000,
100000000000000000000000000000000000100000000000,
100000000000000000000000000000000000100000000000,
100000000000000000000000000000000000000000100000,
000000000000000000000000000000000000000000000000,
100000000000000000000000000000000000000000100000,
000000000000000000000000000000000000000000000000,
100000000000000000000000000000000000000000500000,
000000000000000000000008000000000000000000000000,
100000000000000000100000000000000000000000100000,
000000000000000000000000000000000000000000000000,
100000000000000000000000000000000000000000200000,
000000000000000000000000000000000000000000000000,
100000000000000000000000000000000000000000200000,
000000000000000000000000000000000000000000000000,
100000000000000000100000000000000000500000000000,
000000000000000000000008000000700000000000000000,
,
8,
300000000000000000300000000000000000300000000000,
000000000000000000000000000000000000000000000000,
#GOGOSTART
100000000000000000000000100000000000100000000000,
100000000000000000000000100000000000000000000000,
100000000000000000000000100000000000100000000000,
100000000000000000000000000000000000000000000000,
200000000000200000000000200000000000200000000000,
200000000000200000000000200000000000000000000000,
100000000000100000000000100000000000000000000000,
100000000000100000000000100000000000100000000000,
100000000000000000000000100000000000100000000000,
100000000000000000000000100000000000000000000000,
100000000000000000000000100000000000100000000000,
100000000000000000000000000000000000000000000000,
100000000000100000000000100000000000100000000000,
100000000000100000000000100000000000000000000000,
300000000000300000000000000000000000000000000000,
70000008,
#GOGOEND
100000000000000000000000000000000000100000000000,
100000000000000000000000000000000000100000000000,
100000000000000000000000000000000000200000000000,
200000000000000000000000000000000000100000000000,
300000000000000000300000000000000000300000000000,
100000000000000000000000000000000000100000000000,
100000000000000000000000000000000000100000000000,
500000000000000000000000000000000000000000000008,
#END
