//TJADB Project
TITLE:liveDevil
TITLEJA:liveDevil
SUBTITLE:--Da-iCE feat. Subaru Kimura/Kamen Rider Revice
SUBTITLEJA:「仮面ライダーリバイス」より
BPM:164
WAVE:liveDevil.ogg
OFFSET:-2.270
DEMOSTART:47.963

COURSE:Oni
LEVEL:6
SCOREINIT:2970
SCOREDIFF:0
#START
300000200000200000200000100000200000000000200000,
100000000000200000200000100000000000200000200000,
100000100000100000100000100100100000100100100000,
000000000000400000000000100100100000100100100000,
#GOGOSTART
300000000000200000100000200000000000100100100000,
000000100000100000100000200200200000200000100000,
100000000000200000100000200000200000100100100000,
200000100000100000200000200000300000000000000000,
#GOGOEND
100000000000000000100000200000200000100000200000,
100000200000200000100000200000000000200020002000,
100000000000000000100000200000200000100000200000,
100000200000200000100000500000000000000008000000,
100000000000200000100000200000000000100000100000,
200000100000100000200000100000200200200000100000,
100000200000200000100000200200200000100000100000,
200000100000100000200000500000000000000008000000,
100000000200000000200000100000000000200000000000,
100000000200000000200000200000100000100000500000,
000000000000000000000008000000000000200000200000,
000000200000000000200000100000200000000000000000,
100000000200000000200000100000000000200000000000,
100000000200000000200000100000000000200000500000,
000000000000000000000008000000000000100010001000,
200000000000100000000000200000000000100000000000,
100000200000200000100000200000000000200000100000,
000000100000200000000000100000000000100010001000,
100000000000100010000000200000000000100010000000,
200000000000100000000000200000000000200000200000,
100000000200100000200000100000000000100000200000,
100000000200100000200000100000000000100000200000,
100000100000100000100000100100100000100100100000,
000000000000400000000000100100100000100100100000,
#GOGOSTART
300000000000200000100000200000200000100100100000,
200000100000100000200000000000100000100000200000,
100000100000200000100000200000200000000000100100,
100000000000400000100000100100100000100100100000,
300000000000100100100000200000000000200000100000,
100100100000100100100000400000000000000000000000,
100000000100000000200000100000000100000000200000,
000000100000100000000000200000100000100000200000,
100000000000200200200000300000000000200200200000,
300000000000100000200000100000200000100000000000,
100000200000100000000000100000100000200000100000,
100000000200100000200000100000000200100000200000,
100000000000200200200000300000000000200200200000,
300000000000100000200000100000200000100000000000,
100000000200100000200000100000000200100000200000,
100000000000100000100000100100100000100100100000,
300000000000100000100100100000100000200000100000,
400000300000400000300000400000300000200200200000,
300000000000000000000000000000000000000000000000,
#GOGOEND
#END

COURSE:Hard
LEVEL:5
BALLOON:11
SCOREINIT:4150
SCOREDIFF:0
#START
300000000000200000000000200000200000000000200000,
200000000000200000200000200000000000200000000000,
600000000000000000000000000000000000000008000000,
000000000000300000000000300000000000300000000000,
#GOGOSTART
300000000000000000100000200000000000100000100000,
000000100000100000000000200000100000100000000000,
100000000000100000100000200000100000000000100000,
200000100000100000100000200000300000000000000000,
#GOGOEND
100000000000000000100000100000000000200000000000,
100000000000100000100000200000000000000000000000,
100000000000000000100000100000100000200000000000,
100000000000100000100000500000000000000008000000,
100000000000000000100000100000000000200000200000,
100000100000200000100000100000000000000000100000,
100000000000200000100000100000000000200000100000,
100000100000200000100000500000000000000008000000,
100000000100000000100000200000000000000000000000,
100000000100000000100000200000200000100000500000,
000000000000000000000008000000000000200000200000,
000000200000000000200000200000200000000000000000,
100000000100000000100000200000000000000000000000,
100000000100000000100000200000000000200000500000,
000000000000000000000008000000000000200000000000,
200000000000100000000000200000000000100000000000,
100000100000200000200000100000000000100000100000,
000000200000200000000000100000000000100000000000,
100000000000100010000000100000000000100010000000,
100000000000100000000000200000000000200000000000,
100000000100100000100000100000000000100000100000,
100000000100100000100000100000000000100000100000,
100000100000100000100000100000100000100100100000,
000000000000300000000000300000000000300000000000,
#GOGOSTART
300000000000000000100000200000100000100100100000,
100000200000000000200000100000000000100000000000,
100000100000200000100000200000200000000000200000,
100000000000300000000000400000000000300000000000,
300000000000100000100000200000000000000000100000,
200000100000100000100000400000000000000000000000,
100000000100000000200000100000000100000000200000,
000000100000100000000000200000100000100000200000,
100000000000400000000000300000000000400000000000,
300000000000100000000000100000200000100000000000,
100000100000200000000000100000100000200000100000,
100000000100000000200000100000000100000000200000,
100000000000400000000000300000000000400000000000,
300000000000100000000000100000200000100000000000,
100000000100000000200000100000000100000000200000,
9,
8,
400000300000400000300000400000000000100100100000,
300000000000000000000000000000000000000000000000,
#GOGOEND
#END

COURSE:Normal
LEVEL:3
BALLOON:9,8
SCOREINIT:8470
SCOREDIFF:0
#START
300000000000200000000000200000000000000000000000,
200000000000200000000000200000000000000000000000,
600000000000000000000000000000000000000008000000,
000000000000300000000000300000000000300000000000,
#GOGOSTART
300000000000000000000000100000000000000000100000,
000000000000100000000000200000000000000000000000,
100000000000000000000000100000000000000000100000,
000000000000100000000000200000000000000000000000,
#GOGOEND
200000000000000000200000200000000000000000000000,
200000000000200000000000200000000000000000000000,
200000000000000000200000200000000000000000000000,
200000000000200000000000200000000000000000000000,
100000000000000000100000100000000000000000000000,
100000000000100000000000100000000000000000000000,
100000000000000000100000100000000000000000000000,
100000000000100000000000100000000000000000000000,
100000000000000000000000200000000000000000000000,
100000000000000000000000200000000000000000500000,
000000000000000000000008000000000000700000000000,
00000800,
100000000000000000000000200000000000000000000000,
100000000000000000000000200000000000200000500000,
000000000000000000000008000000000000000000000000,
200000000000200000000000200000000000000000000000,
100000000000100000000000100000000000000000100000,
000000000000100000000000100000000000000000000000,
100000000000000000000000100000000000000000000000,
100000000000100000000000100000000000000000000000,
100000000000100000000000100000000000100000000000,
100000000000100000000000100000000000100000000000,
600000000000000000000000000000000000000008000000,
000000000000300000000000300000000000300000000000,
#GOGOSTART
300000000000000000000000200000000000000000000000,
100000000000100000000000200000000000000000000000,
100000000000100000000000100000000000000000100000,
000000000000300000000000300000000000300000000000,
300000000000000000000000200000000000000000000000,
100000000000100000000000200000000000000000000000,
100000000000100000000000200000000000000000000000,
100000000000100000000000200000000000100000000000,
600000000000000000000000000000000000000000000000,
000000000000000000000000000008000000000000000000,
100000000000100000000000100000000000000000000000,
100000000000200000000000100000000000200000000000,
600000000000000000000000000000000000000000000000,
000000000000000000000000000008000000000000000000,
100000000000200000000000100000000000200000000000,
9,
8,
300000000000300000000000300000000000400000000000,
300000000000000000000000000000000000000000000000,
#GOGOEND
#END

COURSE:Easy
LEVEL:2
BALLOON:7
SCOREINIT:18050
SCOREDIFF:0
#START
300000000000000000000000000000000000000000000000,
200000000000000000000000000000000000000000000000,
600000000000000000000000000000000000000008000000,
000000000000000000000000000000000000000000000000,
#GOGOSTART
300000000000000000000000100000000000000000000000,
000000000000000000000000100000000000000000000000,
100000000000000000000000100000000000000000000000,
000000000000000000000000100000000000000000000000,
#GOGOEND
100000000000000000000000000000000000000000000000,
100000000000000000000000000000000000000000000000,
100000000000000000000000000000000000000000000000,
100000000000000000000000000000000000000000000000,
100000000000000000000000100000000000000000000000,
000000000000000000000000100000000000000000000000,
100000000000000000000000100000000000000000000000,
000000000000000000000000100000000000000000000000,
100000000000000000000000000000000000000000000000,
200000000000000000000000200000000000000000000000,
200000000000000000000000000000000000000000000000,
000000000000000000000000000000000000000000000000,
200000000000000000000000000000000000000000000000,
200000000000000000000000200000000000000000000000,
200000000000000000000000000000000000000000000000,
000000000000000000000000000000000000000000000000,
100000000000000000000000100000000000000000000000,
000000000000000000000000100000000000000000000000,
100000000000000000000000100000000000000000000000,
000000000000000000000000100000000000000000000000,
100000000000000000000000100000000000000000000000,
600000000000000000000000000000000000000000000000,
000000000000000000000000000000000000000008000000,
000000000000000000000000000000000000000000000000,
#GOGOSTART
300000000000000000000000100000000000000000000000,
100000000000000000000000000000000000000000000000,
100000000000100000000000100000000000000000500000,
000000000008000000000000000000000000000000000000,
300000000000000000000000100000000000000000000000,
100000000000100000000000100000000000000000000000,
100000000000000000000000100000000000000000000000,
100000000000000000000000100000000000000000000000,
600000000000000000000000000000000000000000000000,
000000000000000000000000000008000000000000000000,
000000000000000000000000000000000000000000000000,
100000000000000000000000100000000000000000000000,
600000000000000000000000000000000000000000000000,
000000000000000000000000000008000000000000000000,
000000000000000000000000000000000000000000000000,
9,
8,
300000000000300000000000300000000000000000000000,
300000000000000000000000000000000000000000000000,
#GOGOEND
#END
