//TJADB Project
TITLE:Solitude Star
TITLEJA:Solitude Star
SUBTITLE:--Harusaki × beet
SUBTITLEJA:春先 x beet
BPM:178
WAVE:Solitude Star.ogg
OFFSET:-1.522
DEMOSTART:53.555 //shinuchi:
5390/2870/1890/1190

COURSE:Oni
LEVEL:9
BALLOON:15,15,17,15,17
SCOREINIT:410,1280
SCOREDIFF:93
#START
2011221122112210,
#GOGOSTART
200100100100100100200100100100101010200100100100,
200100100100100100200100100100101010200100100100,
1110102220201110,
1121112121212210,
200100100100100100200100100100101010200100100100,
200100100100100100200100100100101010200100100100,
1110102220201110,
1121112121212050,
0,
000000000000000000000000000000000000000008000000, //11
#GOGOEND
01211121,
11210121,
10202021,
0010201022102000,
01211201,
10210202,
0010201110202010,
12212121, //19
0010201010112010,
0011102000102211,
10202021,
0010201020102011,
10011021,
01201121,
01212112,
1010201021212211, //27
10202120,
10212120,
10211105,
000000000000000000000000000000000008000000100100,
11210121,
0010201000101022,
21210121,
01210220,
2000212110201121,
12211221,
500000000000000000000000000000000008000000300000,
0030003000102220, //39
#GOGOSTART
1110201110112110,
1110201110112210,
1110102220202070,
0008,
1110222011102220,
1110201110112110,
1011201011201120,
1011201121212210, //47
1110201110112110,
1110201110112210,
1110102220202070,
0008,
3000203002100000,
40140407,
00000008,
2011201121212210,
23003003,
0010400010202211, //57
#GOGOEND
5,
000008000000100100100000200000200000000000100100,
11212121,
0010201000112011,
2000001120000020,
0020202010102100,
2220201011105000,
000000000000000000000000000000000000000008000000, //65
1000222220001111,
101010201010221010221010,
1110102220201040,
04040000,
3,
3,
30000003,
01112211,
10012100,
10102100,
10112121,
1011201121212210, //77
#GOGOSTART
1110201110112110,
1110201110112210,
1110102220202070,
0008,
3000203002100000,
40140407,
00000008,
2011201121212210, //85
200100100100100100200100100100101010200100100100,
200100100100100100200100100100101010200100100100,
1110102220201110,
1121112121212210,
200100100100100100200100100100101010200100100100,
200100100100100100200100100100101010200100100100,
1110102220201110,
1121112121212050, //93
0,
000000000000000000000000000000000000000008000000,
#GOGOEND
2010221010221040,
03030000,
0,
#BARLINEOFF
0,
0,
0,
0, //102
#END

COURSE:Hard
LEVEL:7
BALLOON:10,12,12,13,12,13
SCOREINIT:520,2120
SCOREDIFF:123
#START
7008,
#GOGOSTART
10201120,
10210120,
1110102220201110,
1020002010222000,
10201120,
10210120,
1110102220201110,
12021025,
0,
000000000000000000000000000000000000000008000000, //11
#GOGOEND
01211121,
01210120,
00202021,
0000201022202000,
01211201,
10210202,
01212121,
12212121, //19
0010201010222010,
0010201000102022,
20202021,
0000201020200011,
10011021,
01201121,
01212121,
12212100, //27
0222,
10210100,
10210105,
000000000000000000000000000000000008000000100100,
11210121,
0010201000000022,
21210121,
01210000,
20220202,
0212,
500000000000000000000000000000000008000000300000,
03030122, //39
#GOGOSTART
1110201000202020,
1110201000102000,
10010027,
0008,
1110200011102000,
1110201000102010,
01200202,
11210122, //47
1110201000202020,
1110201000102020,
10210027,
0008,
30230300,
40140409,
00000908,
0,
03003003,
0444, //57
#GOGOEND
5,
000008000000100000100000200000200000000000100000,
01212121,
01210120,
20012002,
02221120,
22211150,
000000000000000000000000000000000000000008000000, //65
1000101110001011,
1022201010111000,
1010101110101040,
04040000,
3,
3,
30000003,
01112211,
10002100,
10002100,
10002121,
22220122, //77
#GOGOSTART
1110201000202020,
1110201000102020,
10210027,
0008,
30230300,
40140409,
00000908,
0, //85
10201120,
10210120,
1110102220201110,
1020002010222000,
10201120,
10210120,
1110102220201110,
12021025, //93
0,
000000000000000000000000000000000000000008000000,
#GOGOEND
1010222010111030,
03030000,
0,
#BARLINEOFF
0,
0,
0,
0, //102
#END

COURSE:Normal
LEVEL:6
BALLOON:7,8,8,8,8,8
SCOREINIT:610,3320
SCOREDIFF:150
#START
7008,
#GOGOSTART
1212,
1210,
11010101,
01011000,
1212,
1210,
11010101,
01011015,
0,
000000000000000000000000000000000008000000000000, //11
#GOGOEND
10201120,
10202220,
10201120,
10202220,
10201120,
10220202,
01110111,
000000500000000000000000000000000000000008000000, //19
00201120,
00020220,
10201022,
02202220,
20201120,
11201022,
00202002,
000000000000200000000000500000000000000000000008, //27
0111,
10110100,
10110105,
000000000000000000000000000000000008000000000000,
10110111,
01110000,
20220222,
02220000,
10110101,
0222,
500000000000000000000000000008000000000000300000,
03030000, //39
#GOGOSTART
10110220,
10110220,
10010017,
0008,
10101110,
20220201,
01500000,
000000000000000008000000000000000000000000000000, //47
10110220,
10110220,
10010017,
0008,
30030300,
40040409,
00000908,
0,
03003003,
0333, //57
#GOGOEND
500000000000000000000000000000000000000000000008,
00102201,
00202022,
01110020,
20000002,
02220220,
20220250,
000000000000000000000000000000000008000000000000, //65
12,
11102220,
500000000000000000000000000008000000000000400000,
04040000,
3,
3,
30000003,
00101110,
12,
12,
1022,
20220000, //77
#GOGOSTART
10110220,
10110220,
10010017,
0008,
30030300,
40040409,
00000908,
0, //85
1212,
1210,
11010101,
01011000,
1212,
1210,
11010101,
01011015, //93
0,
000000000000000000000000000000000000000008000000,
#GOGOEND
10111003,
03030000,
0,
#BARLINEOFF
0,
0,
0,
0, //102
#END

COURSE:Easy
LEVEL:5
BALLOON:5,6,6,6,6,6
SCOREINIT:660,7080
SCOREDIFF:200
#START
7008,
#GOGOSTART
10010000,
10010000,
10010001,
03,
10010000,
10010000,
10010001,
00004005,
0,
000000000000000000000000000000000008000000000000, //11
#GOGOEND
0202,
0202,
00202005,
000000000000000000000000000000000008000000000000,
0202,
00200005,
000000000000000000000000000000000000000000000008,
0, //19
00200004,
0,
00202005,
000000000000000000000008000000000000000000000000,
10001001,
00001005,
000000000000000000000000000000000000000000000008,
0, //27
0101,
0101,
10010105,
000000000000000000000000000000000008000000000000,
10010001,
00010000,
20020002,
00020000,
34,
34,
600000000000000000000000000008000000000000300000,
03030000, //39
#GOGOSTART
10020000,
10020000,
10020007,
0008,
1110,
10010005,
0,
000000000008000000000000000000000000000000000000, //47
10020000,
10020000,
10020007,
0008,
30030000,
40040009,
00000908,
0,
03003003,
0330, //57
#GOGOEND
5,
000000000000000000000000000000000008000000000000,
0202,
20020000,
0101,
0101,
10010050,
000000000000000000000000000000000008000000000000, //65
11,
11,
500000000000000000000000000008000000000000300000,
03030000,
4,
4,
40000006,
000000000000000000000000000008000000000000000000,
12,
12,
12,
2200, //77
#GOGOSTART
10020000,
10020000,
10020007,
0008,
30030000,
40040009,
00000908,
0, //85
10010000,
10010000,
10010001,
03,
10010000,
10010000,
10010001,
00004005, //93
0,
000000000000000000000000000000000008000000000000,
#GOGOEND
10000003,
03030000,
0,
#BARLINEOFF
0,
0,
0,
0, //102
#END
