//TJADB Project
TITLE:Don-chan Sekai Ryokou
TITLEJA:どんちゃん世界旅行
SUBTITLE:--Keiichi Okabe feat. Kenji Kai
BPM:138
WAVE:Don-chan Sekai Ryokou.ogg
OFFSET:-3.027
DEMOSTART:39.067

COURSE:Oni
LEVEL:7
BALLOON:16,16,16
SCOREINIT:480
SCOREDIFF:128
#START
,
1020102010102011,
0020110010202000,
3000100030302011,
0020112011202220,
1020102030302011,
0020112010404000,
1020102030302011,
0020102010222020,
0020002000201011,
0020110010111020,
3000201110202010,
0010200010222020,
1000201110202010,
0010200011101020,
3000201110202010,
01201021,
1100201100101020,
0010200020111010,
1100201100202010,
#SECTION
#BRANCHSTART p,75,90
#N
01200210,
30303011,
11010441,
12121221,
01200210,
30303011,
11210441,
12121221,
01210210,
3332,
11210441,
12121221,
01200210,
3332,
11210441,
12110112,
0010112000404040,
500000000000000000000000000000000000000000000008,
,
1020102010102011,
0020110010404010,
1020102010102011,
0020110010404010,
1020102010102011,
#E
01200211,
30303011,
11010441,
1020102010222010,
01200211,
30303011,
11210441,
1020102010222010,
01210211,
3332,
11210441,
1020102010222010,
01200211,
3332,
11210441,
1020101020101120,
0010112000404040,
500000000000000000000000000000000000000000000008,
,
1020102010102011,
0020110010404010,
1020102010102011,
0020110010404010,
1120112011102011,
#M
0010202200201010,
30303011,
1011201000404010,
1020112010222010,
0010201100201010,
30303011,
1011201000404010,
1020102010222010,
01210211,
3332,
1011201000404010,
1020112010222010,
0010201100201010,
3332,
1011201000404010,
1120101120101120,
0010112000404040,
500000000000000000000000000000000000000000000008,
,
1120112011102011,
0020110010404010,
1120112011102011,
0020110010404010,
1120112011102011,
#SECTION
#BRANCHSTART p,75,90
#N
0020110010102010,
11211021,
01221121,
01211121,
01221121,
01211121,
01201121,
2220002220002020,
12230440,
7,
0801,
#GOGOSTART
30303011,
11210441,
12121221,
01200210,
30303021,
11010441,
12121221,
01210210,
30303021,
11010441,
12121221,
01200210,
3332,
11210441,
12112112,
0010112000404040,
#GOGOEND
5000000000000000000000000000000000000000000000008,
#E
0020110010102010,
1010201110002010,
01221121,
01211121,
01221121,
0010201110102010,
01221121,
2220002220002020,
32230440,
7,
00800011,
#GOGOSTART
30303011,
11210441,
1020102010222010,
01200211,
30303021,
11010441,
1020102010222010,
01210211,
30303021,
11010441,
1020102010222010,
01200211,
3332,
1110201000404010,
1020101020101120,
0010112000404040,
#GOGOEND
500000000000000000000000000000000000000000000008,
#M
0020110011102010,
1010201110102010,
0010202011102010,
01211121,
0010202011102010,
3010201110102010,
01221121,
2220102220102020,
32230440,
7,
00800011,
#GOGOSTART
30303011,
1011201000404010,
1020112010222010,
0010201100221010,
30303021,
1011201000404010,
1020102010222010,
0010201120221010,
30303021,
1011201000404010,
1020112010222010,
0010201100221010,
3332,
1110201000404010,
1120101120101120,
0010112000404040,
#GOGOEND
5,
#SECTION
#BRANCHSTART p,75,90
#N
000000000008000000000000000000000000000000000000,
1020102010102011,
0020110010404010,
1020102010102011,
0020110010404010,
12121123,
0010101100202030,
#E
000000000008000000000000000000000000000000000000,
1020102010102011,
0020110010404010,
1020102010102011,
0020110010404010,
1120112011102030,
0010101100222030,
#M
000000000008000000000000000000000000000000000000,
1120112011102011,
0020110010404010,
1120112011102011,
0020110010404010,
1120112011102030,
0010201100222030,
#BRANCHEND
#END

COURSE:Hard
LEVEL:6
BALLOON:16,16
SCOREINIT:520
SCOREDIFF:138
#START
,
1020102010201011,
02121220,
10101202,
02121210,
10101202,
02120220,
10101101,
02121111,
10100202,
0020001000111020,
12121011,
01021101,
12121122,
0010112010100010,
12121011,
01021122,
1100201100200020,
0020200020021110,
1100201100200020,
0020200102211010,
20202011,
11010201,
10101222,
1020200101112020,
20202011,
11040001,
10101022,
00220011,
20202011,
11010201,
11101222,
1020200101112020,
20202011,
11040001,
01120112,
02220202,
5000000000000000000000000000000000000000000000080000000000000000,
10201120,
1120102011101011,
0011100020111010,
1120102011101011,
0011100020111010,
1120102011101011,
0022201110111010,
32121211,
01021101,
1020102010101011,
01021101,
32121211,
01021211,
7,
00800222,
07000000,
00080011,
#GOGOSTART
20202011,
11010201,
10101222,
1020200101112020,
20202011,
11040001,
10101022,
02220011,
20202011,
11010201,
11101222,
1020200101112020,
20202011,
11040001,
01120112,
02220202,
#GOGOEND
500000000000000000000000000000000008000000000000,
10201120,
1120102011101011,
02201120,
1120102011101011,
02201120,
1120102011101011,
0022201110111030,
#END

COURSE:Normal
LEVEL:4
BALLOON:16,16
SCOREINIT:680
SCOREDIFF:203
#START
,
1100,
1120,
1100,
1120,
1100,
1122,
1100,
1120,
1100,
11110000,
30101011,
01001100,
10101111,
00001100,
10101011,
01001110,
1100001100000000,
,
1100001100000000,
1001,
3331,
11010000,
10101005,
000000000000000008000000000000000000200000000000,
4440,
11030000,
1110,
10220010,
3331,
11010001,
11101005,
000000000000000008000000000000000000200000000000,
4440,
11030000,
10220000,
10220000,
500000000000000000000000000000000008000000000000,
,
1212,
1,
1212,
1,
1212,
11110000,
30101011,
01001101,
10101011,
00001100,
30101011,
01001011,
7,
0800,
7,
00080011,
#GOGOSTART
1331,
11010000,
10101005,
000000000000000008000000000000000000200000200000,
2440,
11030000,
1110,
10220011,
1330,
11010001,
11101005,
000000000000000008000000000000000000200000200000,
2440,
11030000,
10220000,
10220000,
#GOGOEND
500000000000000000000000000000000008000000000000,
,
11100000,
11200000,
11100000,
11200000,
11100011,
10101033,
#END

COURSE:Easy
LEVEL:4
BALLOON:10
SCOREINIT:590
SCOREDIFF:213
#START
,
1100,
1200,
1100,
1200,
1100,
1220,
1100,
1200,
1100,
1220,
12,
1100,
11,
1200,
12,
1100,
3,
1110,
3,
1100,
3330,
11030000,
11,
500000000000000000000008000000000000000000000000,
4440,
11030000,
1110,
1220,
3330,
11030000,
11,
500000000000000000000008000000000000000000000000,
4440,
11030000,
1110,
1220,
500000000000000000000008000000000000000000000000,
,
1100,
1200,
3,
1100,
1100,
1110,
3,
1,
1,
1,
4,
2,
7,
0800,
5,
000000000008000000000000000000000000000000000000,
#GOGOSTART
3330,
11030000,
11,
500000000000000000000008000000000000000000000000,
4440,
11030000,
1110,
1220,
3330,
11030000,
11,
500000000000000000000008000000000000000000000000,
4440,
11030000,
1110,
1220,
#GOGOEND
500000000000000000000008000000000000000000000000,
,
1100,
12,
1100,
12,
1100,
1111,
3,
#END
