//TJADB Project
TITLE:AWAY
SUBTITLE:--G.E.M.
BPM:136
WAVE:AWAY.ogg
OFFSET:-0.370
DEMOSTART:43.338

COURSE:Oni
LEVEL:6
BALLOON:15,13
SCOREINIT:3680
SCOREDIFF:0
#START
20220220,
22202222,
20220220,
22202222,
10120210,
11201222,
10120210,
11202000,
1000100010112010,
10102001,
1000100010112010,
10102011,
1000100010112010,
10102001,
10102021,
1022,
1000101120002000,
1000101120002000,
1000100010112010,
10102011,
1000100010112010,
10102001,
1000100020001210,
7,
8000001022111020,
#GOGOSTART
600000000000000000000000000008000000600000000000,
000000000000000000000000000008000000100200100000,
2000121020001000,
2020201120111020,
600000000000000000000000000008000000600000000000,
000000000000000000000000000008000000100200100000,
2000121020001000,
2020201120111020,
600000000000000000000000000008000000600000000000,
000000000000000000000000000008000000700000000000,
0000000000801210,
2000101120111020,
1000121020002220,
1000121020002220,
1000121020002220,
1020201120111020,
#GOGOEND
12202020,
1020201120101020,
12102011,
2020201120101020,
12202020,
1020201120101020,
12102033,
#END

COURSE:Hard
LEVEL:4
BALLOON:12,30
SCOREDIFF:0
#START
20220020,
20202220,
20220020,
2220,
10120220,
12202220,
10120220,
12202000,
10101121,
10102001,
10101121,
10102011,
10101121,
10102001,
10102021,
1022,
10111020,
10112020,
10101121,
10102011,
10101121,
10102001,
10102021,
7,
80012111,
#GOGOSTART
600000000000000000000000000008000000600000000000,
000000000000000000000000000008000000100000100000,
20112010,
20012111,
600000000000000000000000000008000000600000000000,
000000000000000000000000000008000000100000100000,
20112010,
20012111,
9,
,
8,
00112111,
10112022,
10112022,
10112022,
10012111,
#GOGOEND
12202000,
10012111,
10102011,
20012111,
12202000,
10012111,
10102033,
#END

COURSE:Normal
LEVEL:4
BALLOON:10,22
SCOREINIT:7880
SCOREDIFF:0
#START
2200,
22,
2200,
22,
1101,
11,
1101,
12,
10001110,
12,
10001110,
12,
10001110,
12,
1011,
1022,
1110,
1120,
10101110,
1120,
10101110,
1120,
1111,
7,
80001110,
#GOGOSTART
600000000000000000000000000008000000600000000000,
000000000000000000000000000008000000100000100000,
00110000,
20001110,
600000000000000000000000000008000000600000000000,
000000000000000000000000000008000000100000100000,
00110000,
20001110,
7,
,
8,
00101110,
10110022,
00110022,
00110022,
0011,
#GOGOEND
12,
1011,
10002011,
0011,
12,
1011,
10002033,
#END

COURSE:Easy
LEVEL:2
BALLOON:8,19
SCOREINIT:13810
SCOREDIFF:0
#START
2,
,
2,
,
1,
1,
1,
1,
11,
1,
11,
1,
11,
12,
11,
12,
1110,
1110,
1011,
12,
1011,
12,
1011,
7,
8011,
#GOGOSTART
6,
000000000000000008000000000000000000100000000000,
0100,
0011,
6,
000000000000000008000000000000000000100000000000,
0100,
0011,
7,
,
8,
0011,
10010010,
0101,
0101,
01,
#GOGOEND
12,
11,
1001,
01,
12,
11,
1003,
#END
