//TJADB Project
TITLE:Cinderella
TITLEJA:シンデレラ
SUBTITLE:--DECO*27 feat. Hatsune Miku
SUBTITLEJA:DECO*27 feat初音ミク
BPM:158
WAVE:Cinderella.ogg
OFFSET:-0.427
DEMOSTART:42.697

COURSE:Edit
LEVEL:9
SCOREINIT:1030
SCOREDIFF:0
#START
10101122,
10221202,
3030222030302030,
02223330,
#GOGOSTART
1002102010211020,
1122112210221020,
1002102010211020,
200200100100200200100100200000202020200000200000,
1002102010211020,
1122112210221020,
1012101012101211,
2022102212202000,
#GOGOEND
1012101210121120,
1012111211112220,
1020111010222010,
2210201040004000,
1012111211121120,
1012111211011220,
1022101011202011,
2012201040004000,
3000200010021020,
2110200122222020,
2022202021022012,
2220202122121220,
3002102012201020,
3002102012221020,
3022221030222210,
300400300300400000222222,
0000
#GOGOSTART
100211102011,
2011102211222020,
2012201220112010,
1011211030403040,
1002102011102011,
2011102211222020,
2012201220112010,
1011211030403040,
1102102010221020,
1101202011200020,
1011202010112010,
0012101012112000,
1102102010221020,
1101202011200020,
3030222030302030,
02223330,
#GOGOEND
2002202020022020,
2002202022202020,
21122121,
2010201022112000,
2012202020122020,
2012202022202020,
21122121,
2010201021102020,
0000
#GOGOSTART
100211102011,
2011102211222020,
2012201220112010,
1011211030403040,
1002102011102011,
2011102211222020,
2012201220112010,
1011211030403040,
#GOGOEND
12212020,
12212020,
12212212,
12212040,
30303033,
100000100000202020100200100200100100200000200000,
30303033,
200200200200200200222222,
1000222010222000,
1000222010222020,
2000200020022020,
2022202030403040,
1101102011011020,
1101102011011110,
2101210121112030,
02022012,
300000300000300000222222,
0000
#GOGOSTART
102212221210,
2012201220112222,
1011211030403040,
1002102011102011,
2011102211222020,
2211211122112022,
1011211030403040,
1102102010221020,
1101202011200020,
1011202010112010,
0012101012112000,
1102102010221020,
1101202011200020,
1011202210112010,
0012101011111110,
1102110121012022,
1101202211200020,
1011202211112010,
0012101012112000,
1102110121012022,
1101212211200020,
3030222030302030,
01114440,
#GOGOEND
#END

COURSE:Oni
LEVEL:7
BALLOON:6
SCOREINIT:1510
SCOREDIFF:0
#START
11,
11,
33003303,
02223330,
#GOGOSTART
1002102010021020,
1020102010222020,
1002102010021020,
22112211,
1002102010021020,
1020102010222020,
1002101010201010,
2022102220202000,
#GOGOEND
1011101010111020,
1011101011102220,
10121210,
21214040,
1011101010111020,
1011101011022020,
10121210,
21214040,
30201001,
01211021,
200100200100100000201100,
01211020,
30201012,
30201012,
3022202030222020,
34334001,
1000
#GOGOSTART
100011102010,
0011102011201010,
20202021,
0011101030403040,
1000100011102010,
0011102011201010,
20202021,
0022101030403040,
1000100010221020,
11221202,
1110202010001010,
0011101010202000,
1000100010221020,
11221202,
33003303,
02223330,
#GOGOEND
20022002,
20022222,
01122121,
01212020,
20022002,
20022222,
01122021,
01212021,
1000
#GOGOSTART
100011102010,
0011102011201010,
20202021,
0011101030403040,
1000100011102010,
0011102011201010,
20202021,
0022101030403040,
#GOGOEND
12212020,
12212020,
12212212,
12212040,
3333,
1010201202102000,
3333,
00000001,
10201022,
12021211,
20202022,
02023434,
10121012,
1000102010111010,
20202023,
02022012,
30303022,
0010
#GOGOSTART
102011201010,
20202021,
0011101030403040,
1000100011102010,
0011102011201010,
500000000000000000000008000000000000200000100000,
0022101030403040,
1000100010221020,
11221202,
1110202010001010,
0011101010202000,
1000100010221020,
11221202,
1110202010001010,
0011101070000080,
1000100010221020,
11221202,
1110202010001010,
0011101010202000,
1000100010221020,
11221202,
33003303,
01114440,
#GOGOEND
#END

COURSE:Hard
LEVEL:5
BALLOON:10,10,10,6
SCOREDIFF:0
#START
100000000000000000000000100000000000000000000000,
100000000000000000000000100000000000000000000000,
300000300000000000000000300000300000000000700000,
000000000000000000000000000000000000800000000000,
#GOGOSTART
100000000000100000200000100000000000100000000000,
100000200000100000200000100000200000200000000000,
100000000000100000200000100000000000100000000000,
200000200000100000100000200000200000100000000000,
100000000000100000200000100000000000100000000000,
100000200000100000200000100000200000200000000000,
100000000000100000200000100000100000100000000000,
200000200000200000200000200000200000200000000000,
#GOGOEND
100000100000100000000000100000100000100000200000,
100000100000100000000000100000100000200000200000,
100000100000100000000000100000100000100000000000,
200000200000200000000000400000000000400000000000,
100000100000100000000000100000100000100000200000,
100000100000100000000000100000100000200000200000,
100000200000100000000000100000200000100000000000,
200000200000200000000000400000000000400000000000,
300000000000200000000000200000000000200000000000,
200000000000200000000000200000000000200000000000,
200000000000200000200000200000000000200000000000,
200000200000200000200000200000000000200000000000,
300000000000200000000000200000000000200000000000,
300000000000200000000000200000000000200000000000,
300000200000200000000000300000200000200000000000,
600000000000000000000008000000000000000000100000,
100000000000
#GOGOSTART
100000000000100000000000200000100000,
000000100000000000100000100000200000100000100000,
200000000000200000000000200000000000200000100000,
000000100000100000100000400000000000400000000000,
100000000000100000000000100000000000200000100000,
000000100000000000100000100000200000100000100000,
200000000000200000000000200000000000200000100000,
000000100000100000100000400000000000400000000000,
100000000000100000000000100000200000100000200000,
100000000000200000200000100000200000000000200000,
100000100000200000200000100000000000100000100000,
000000100000100000100000100000000000200000000000,
100000000000100000000000100000200000100000200000,
100000000000200000200000100000200000000000200000,
300000300000000000000000300000300000000000700000,
000000000000000000000000000000000000800000000000,
#GOGOEND
200000000000000000200000200000000000000000200000,
200000000000000000200000200000000000200000000000,
000000100000100000000000200000000000200000100000,
000000200000200000200000200000000000200000000000,
200000000000000000200000200000000000000000200000,
200000000000000000200000200000000000200000000000,
000000100000100000000000200000000000200000100000,
000000200000200000200000200000000000200000100000,
100000000000
#GOGOSTART
100000000000100000000000200000100000,
000000100000000000100000100000200000100000100000,
200000000000200000000000200000000000200000100000,
000000100000100000100000400000000000400000000000,
100000000000100000000000100000000000200000100000,
000000100000000000100000100000200000100000100000,
200000000000200000000000200000000000200000100000,
000000100000100000100000400000000000400000000000,
#GOGOEND
100000000000000000000000200000000000200000000000,
100000000000000000000000200000000000200000000000,
100000000000000000200000200000000000200000000000,
100000000000200000000000200000000000400000000000,
300000000000300000000000300000000000300000000000,
700000000000000000000000000000000000000000800000,
300000000000300000000000300000000000300000000000,
000000000000000000000000000000000000000000000000,
100000000000200000000000000000000000200000000000,
100000000000200000000000000000200000200000000000,
100000000000200000000000000000000000200000100000,
000000200000000000200000400000000000400000000000,
100000000000100000000000100000000000100000000000,
100000000000100000000000100000100000100000000000,
200000000000200000000000200000000000200000300000,
000000200000000000200000200000000000000000000000,
300000000000300000000000300000000000200000100000,
000000100000
#GOGOSTART
000000100000100000200000100000100000,
200000000000200000000000200000000000200000100000,
000000100000100000100000400000000000400000000000,
100000000000100000000000100000000000200000100000,
000000100000100000100000100000200000100000100000,
500000000000000000000008000000000000200000100000,
000000100000100000100000400000000000400000000000,
100000000000100000000000100000200000100000200000,
100000000000200000200000100000200000000000200000,
100000100000200000200000100000000000100000100000,
000000100000100000100000100000000000200000000000,
100000000000100000000000100000200000100000200000,
100000000000200000200000100000200000000000200000,
100000100000200000200000100000000000100000100000,
000000100000100000100000700000000000000000800000,
100000000000100000000000100000200000100000200000,
100000000000200000200000100000200000000000200000,
100000100000200000200000100000000000100000100000,
000000100000100000100000100000000000200000000000,
100000000000100000000000100000200000100000200000,
100000000000200000200000100000200000000000200000,
300000300000000000000000300000300000000000100000,
000000100000000000100000400000400000400000000000,
#GOGOEND
#END

COURSE:Normal
LEVEL:4
BALLOON:8,7,8,8,9,10
SCOREDIFF:0
#START
100000000000000000000000100000000000000000000000,
100000000000000000000000100000000000000000000000,
300000300000000000000000300000300000000000700000,
000000000000000000000000000000000000800000000000,
#GOGOSTART
100000000000100000000000100000000000000000000000,
100000100000100000100000100000000000100000000000,
100000000000100000000000100000000000000000000000,
200000200000200000000000200000200000200000000000,
100000000000100000000000100000000000000000000000,
100000100000100000100000100000000000100000000000,
100000100000100000000000100000100000100000000000,
700000000000000000000000000000000000800000000000,
#GOGOEND
100000000000100000000000100000100000100000000000,
100000000000100000000000100000100000100000000000,
100000000000000000000000100000000000000000000000,
200000000000200000000000400000000000400000000000,
100000000000100000000000100000100000100000000000,
100000000000100000000000100000100000100000000000,
100000000000000000000000100000000000000000000000,
200000000000200000000000400000000000400000000000,
300000000000000000000000200000000000000000000000,
200000000000200000000000200000000000000000000000,
200000000000200000000000200000000000000000000000,
200000000000200000200000200000000000000000000000,
300000000000000000000000200000000000000000000000,
300000000000000000000000200000000000000000000000,
300000000000200000000000300000000000200000000000,
600000000000000000000008000000000000000000000000,
100000000000
#GOGOSTART
100000000000100000000000100000100000,
000000100000000000100000100000000000100000000000,
200000000000200000000000200000000000000000100000,
000000100000000000100000400000000000400000000000,
100000000000100000000000100000000000100000100000,
000000100000000000100000100000000000100000000000,
200000000000200000000000200000000000000000100000,
000000100000000000100000400000000000400000000000,
100000000000100000000000100000000000000000000000,
200000000000200000200000200000000000000000000000,
100000000000100000000000100000000000000000100000,
000000100000100000000000100000000000000000000000,
100000000000100000000000100000000000000000000000,
200000000000200000200000200000000000000000000000,
300000300000000000000000300000300000000000700000,
000000000000000000000000000000000000800000000000,
#GOGOEND
200000000000000000000000200000000000000000000000,
200000000000000000000000200000000000200000000000,
000000100000000000000000200000000000200000200000,
000000200000200000000000200000000000200000000000,
200000000000000000000000200000000000000000000000,
200000000000000000000000200000000000200000000000,
000000100000100000000000100000000000100000100000,
000000200000200000000000200000000000200000000000,
100000000000
#GOGOSTART
100000000000100000000000100000100000,
000000100000000000100000100000000000100000000000,
200000000000200000000000200000000000000000100000,
000000100000000000100000400000000000400000000000,
100000000000100000000000100000000000100000100000,
000000100000000000100000100000000000100000000000,
200000000000200000000000200000000000000000100000,
000000100000000000100000400000000000400000000000,
#GOGOEND
100000000000000000000000200000000000200000000000,
100000000000000000000000200000000000200000000000,
100000000000000000000000200000000000200000000000,
100000000000200000000000200000000000400000000000,
300000000000300000000000300000000000300000000000,
700000000000000000000000000000000000000000800000,
300000000000300000000000300000000000300000000000,
000000000000000000000000000000000000000000000000,
100000000000200000000000000000000000200000000000,
100000000000200000000000000000000000200000000000,
100000000000200000000000000000000000200000000000,
100000000000200000000000400000000000400000000000,
100000000000100000000000100000000000000000000000,
100000000000100000000000100000000000000000000000,
700000000000000000000000000000000000000000000000,
800000000000000000000000000000000000000000000000,
300000000000300000000000300000000000000000100000,
000000100000
#GOGOSTART
000000100000100000000000100000000000,
200000000000200000000000200000000000000000100000,
000000100000000000100000400000000000400000000000,
100000000000100000000000100000000000100000100000,
000000100000000000100000100000000000100000000000,
500000000000000000000008000000000000000000100000,
000000100000000000100000400000000000400000000000,
100000000000100000000000100000000000000000000000,
200000000000200000200000200000000000000000000000,
100000000000100000000000100000000000000000100000,
000000100000100000000000100000000000000000000000,
100000000000100000000000100000000000000000000000,
200000000000200000200000200000000000000000000000,
100000000000100000000000100000000000000000600000,
000000000000000000000008000000000000000000000000,
100000000000100000000000100000000000000000000000,
200000000000200000200000200000000000000000000000,
100000000000100000000000100000000000000000100000,
000000100000100000000000100000000000000000000000,
100000000000100000000000100000000000000000000000,
200000000000200000200000200000000000000000000000,
300000300000000000000000300000300000000000900000,
000000000000000000000000000000000000000000000008,
#GOGOEND
#END

COURSE:Easy
LEVEL:3
BALLOON:5,4,5,4,7,8
SCOREDIFF:0
#START
100000000000000000000000100000000000000000000000,
100000000000000000000000100000000000000000000000,
300000000000000000000000300000000000000000700000,
000000000000000000000000000000000000800000000000,
#GOGOSTART
100000000000000000000000100000000000000000000000,
100000000000100000000000100000000000000000000000,
100000000000000000000000100000000000000000000000,
200000000000200000000000200000000000000000000000,
100000000000000000000000100000000000000000000000,
100000000000100000000000100000000000000000000000,
100000000000000000000000100000000000000000000000,
700000000000000000000000000000000000800000000000,
#GOGOEND
100000000000000000000000100000000000000000000000,
100000000000000000000000100000000000000000000000,
100000000000000000000000100000000000000000000000,
200000000000200000000000200000000000000000000000,
100000000000000000000000100000000000000000000000,
100000000000000000000000100000000000000000000000,
100000000000000000000000100000000000000000000000,
200000000000200000000000200000000000000000000000,
300000000000000000000000000000000000000000000000,
200000000000000000000000200000000000000000000000,
200000000000000000000000200000000000000000000000,
200000000000200000000000200000000000000000000000,
300000000000000000000000000000000000000000000000,
300000000000000000000000000000000000000000000000,
300000000000000000000000300000000000000000000000,
600000000000000000000008000000000000000000000000,
100000000000
#GOGOSTART
000000000000100000000000000000100000,
000000000000100000000000100000000000000000000000,
200000000000000000000000200000000000000000500000,
000000000000000000000008000000000000000000000000,
100000000000000000000000100000000000000000100000,
000000000000100000000000100000000000000000000000,
200000000000000000000000200000000000000000500000,
000000000000000000000008000000000000000000000000,
100000000000100000000000100000000000000000000000,
200000000000000000000000200000000000000000000000,
100000000000100000000000100000000000000000100000,
000000000000100000000000100000000000000000000000,
100000000000100000000000100000000000000000000000,
200000000000000000000000200000000000000000000000,
300000000000000000000000300000000000000000700000,
000000000000000000000000000000000000800000000000,
#GOGOEND
200000000000000000000000000000000000000000000000,
200000000000000000000000000000000000000000000000,
200000000000000000000000200000000000000000000000,
200000000000000000000000000000000000000000000000,
200000000000000000000000200000000000000000000000,
200000000000000000000000200000000000000000000000,
200000000000000000000000000000000000000000000000,
200000000000200000000000200000000000000000000000,
100000000000
#GOGOSTART
000000000000100000000000000000100000,
000000000000100000000000100000000000000000000000,
200000000000000000000000200000000000000000500000,
000000000000000000000008000000000000000000000000,
100000000000000000000000100000000000000000100000,
000000000000100000000000100000000000000000000000,
200000000000000000000000200000000000000000500000,
000000000000000000000008000000000000000000000000,
#GOGOEND
100000000000000000000000200000000000000000000000,
100000000000000000000000200000000000000000000000,
100000000000000000000000200000000000000000000000,
100000000000000000000000200000000000000000000000,
300000000000300000000000300000000000300000000000,
700000000000000000000000000000000000000000800000,
300000000000300000000000300000000000300000000000,
000000000000000000000000000000000000000000000000,
100000000000000000000000000000000000000000000000,
100000000000000000000000000000000000000000000000,
200000000000000000000000000000000000000000000000,
200000000000000000000000000000000000000000000000,
100000000000100000000000100000000000000000000000,
100000000000100000000000100000000000000000000000,
700000000000000000000000000000000000000000000000,
800000000000000000000000000000000000000000000000,
300000000000300000000000300000000000000000000000,
000000000000
#GOGOSTART
000000000000100000000000100000000000,
200000000000000000000000200000000000000000500000,
000000000000000000000008000000000000000000000000,
100000000000000000000000100000000000000000100000,
000000000000100000000000100000000000000000000000,
500000000000000000000000000000000000000000000000,
000000000000000000000008000000000000000000000000,
100000000000100000000000100000000000000000000000,
200000000000000000000000200000000000000000000000,
100000000000100000000000100000000000000000100000,
000000000000100000000000100000000000000000000000,
100000000000100000000000100000000000000000000000,
200000000000000000000000200000000000000000000000,
100000000000100000000000100000000000000000600000,
000000000000000000000008000000000000000000000000,
100000000000100000000000100000000000000000000000,
200000000000000000000000200000000000000000000000,
100000000000100000000000100000000000000000100000,
000000000000100000000000100000000000000000000000,
100000000000100000000000100000000000000000000000,
200000000000000000000000200000000000000000000000,
300000000000000000000000300000000000000000900000,
000000000000000000000000000000000000000000000008,
#GOGOEND
#END
