//TJADB Project
TITLE:GO ON ~Mirai e~
TITLEJA:GO ON ~未来へ~
SUBTITLE:--steμ
SUBTITLEJA:太鼓 de タイムトラベル2022 / steμ(BNSI) respecting タイムトラベラーズ
BPM:133
WAVE:GO ON Mirai e.ogg
OFFSET:-2.359
DEMOSTART:4.163

COURSE:Oni
LEVEL:8
BALLOON:22
SCOREINIT:1380
SCOREDIFF:0
#START
#MEASURE 1/64
#SCROLL 1
,
#SCROLL 1.14
,
#SCROLL 1.31
,
#SCROLL 1.5
,
#SCROLL 1.71
,
#SCROLL 1.96
,
#SCROLL 2.24
,
#SCROLL 2.57
,
#SCROLL 2.94
,
#SCROLL 3.36
,
#SCROLL 3.85
,
#SCROLL 4.4
,
#SCROLL 5.04
,
#SCROLL 5.76
,
#SCROLL 6.59
,
#SCROLL 7.54
,
#SCROLL 8.63
,
#SCROLL 9.88
,
#SCROLL 11.3
,
#SCROLL 12.93
,
#SCROLL 14.79
,
#SCROLL 16.93
,
#SCROLL 19.37
,
#SCROLL 22.16
,
#SCROLL 25.36
,
#SCROLL 29.01
,
#SCROLL 33.2
,
#SCROLL 37.99
,
#SCROLL 43.46
,
#SCROLL 49.73
,
#SCROLL 56.9
,
#SCROLL 65.11
,
#MEASURE 2/4
#SCROLL 74.5
,
#MEASURE 4/4
#SCROLL 1
10012000,
1001001020000000,
10012000,
1001001020102100,
1000101020001011,
1001001020102110,
1000101022102010,
4443,
1000100010021000,
1002201110201100,
1000100010021011,
2002201020102210,
1110211110111110,
1101201110111110,
1010210111111110,
500000000000000000000008000000000000300000000000,
1102201011022010,
1102201010002020,
1102201011022010,
30403022,
1101201011012010,
1101201010002020,
1101201011012010,
#MEASURE 5/4
10102000
#BPMCHANGE 266
#SCROLL 0.5
10010010
#BPMCHANGE 133
#SCROLL 1
1000,
#MEASURE 4/4
1002200110022001,
1002201111022011,
1002200110022001,
1002201122011010,
1001102011012010,
1001102011022010,
1001102012022010,
1111101102022000,
110000000100100000100000000100100000100000100000,
110000000100100000100000000100100000200000100000,
110000000100100000100000000100100000100000100000,
110000000100100000100000000200200000200200200000,
110000000100200000100000000100200000100000100000,
110000000100200000100000000100200000100000100000,
110000000100200000100000000100200000100000100000,
110000000100100000200000101010100000300000000000,
#MEASURE 8/4
#BPMCHANGE 266
#SCROLL 0.5
100000000000100000000000100000000000200000020000
100000000000100000000000100000000000200000020000,
100000000000200000000000200000000000100000010000
200000020000000000020000100000000000100000000000,
100000000000100000000000100000000000200000020000
100000000000100000000000100000000000200000020000,
100000000000200000000000200000000000100000010000
200000020000000000020000100000000000100000000000,
100000000000200000020000100000000000200000000000
100000000000200000020000100000000000200000000000,
100000000000200000020000100000000000200000020000
100000000000200000000000100000020000000000000000,
300000000000200000000000100000020000000000000000
300000000000200000000000100000020000000000010000,
100000050000000000000000000000000000000000000008
000000000000000000000000300000000000000000000000,
#MEASURE 6/4
#BPMCHANGE 199.5
#SCROLL 0.67
100000100200000200100000100200000200,
100010100200000200100010100200000000,
100000100200000200100000100200000200,
100010100200000100100000100200000000,
100000100200000100100010100200000100,
100000100200000100100010100200000100,
100000100200000100100010100200050000,
000000000000000000000008000000000000300000000000,
#MEASURE 4/4
#BPMCHANGE 133
#SCROLL 1
1102112011021120,
1102112011021110,
2202111022021110,
1102112011020220,
1102112011021120,
1102112011021110,
1102112010110211,
2010110211203000,
#GOGOSTART
1011201110112011,
1011022022210221,
1011201110112011,
1022011022022210,
2222102011212010,
2222102011212010,
2002001012121000,
3333,
1001101010222010,
1001101010222010,
1001201010122010,
1001201110221000,
1011101110101011,
1011101110221110,
1021102110101011,
1022102210221122,
7,
8,
3003003000000000,
#GOGOEND
#END

COURSE:Hard
LEVEL:5
BALLOON:14,3,14
SCOREINIT:2030
SCOREDIFF:0
#START
#MEASURE 1/64
#SCROLL 1
,
#SCROLL 1.14
,
#SCROLL 1.31
,
#SCROLL 1.5
,
#SCROLL 1.71
,
#SCROLL 1.96
,
#SCROLL 2.24
,
#SCROLL 2.57
,
#SCROLL 2.94
,
#SCROLL 3.36
,
#SCROLL 3.85
,
#SCROLL 4.4
,
#SCROLL 5.04
,
#SCROLL 5.76
,
#SCROLL 6.59
,
#SCROLL 7.54
,
#SCROLL 8.63
,
#SCROLL 9.88
,
#SCROLL 11.3
,
#SCROLL 12.93
,
#SCROLL 14.79
,
#SCROLL 16.93
,
#SCROLL 19.37
,
#SCROLL 22.16
,
#SCROLL 25.36
,
#SCROLL 29.01
,
#SCROLL 33.2
,
#SCROLL 37.99
,
#SCROLL 43.46
,
#SCROLL 49.73
,
#SCROLL 56.9
,
#SCROLL 65.11
,
#MEASURE 2/4
#SCROLL 74.5
,
#MEASURE 4/4
#SCROLL 1
10012000,
1001001020000000,
10012000,
1001001020001000,
10112010,
1001001020001000,
10112010,
4443,
1112,
10210210,
1112,
10210210,
1000111010111000,
1000101110111000,
1000100011111000,
500000000000000000000008000000000000300000000000,
1002201010022010,
1002201010002000,
1002201010022010,
30403022,
1002201010022010,
1002201010002000,
1002201010022010,
#MEASURE 5/4
70
#BPMCHANGE 266
#SCROLL 0.5
00
#BPMCHANGE 133
#SCROLL 1
8,
#MEASURE 4/4
1002200110022000,
1002201010022000,
1002200110022000,
1002201011022000,
1001102011002000,
1001102011002000,
1001102011002000,
1001101107000080,
1001101001101000,
1001101001102000,
1001101001101000,
1001101000002000,
1001101001101000,
1001101001101000,
1002201010001000,
500000000000000000000008000000000000300000000000,
#MEASURE 8/4
#BPMCHANGE 266
#SCROLL 0.5
11221122,
000000000000100000000000100000000000000000000000
100000010000000000100000000000000000000000000000,
11221122,
000000000000100000000000100000000000000000000000
100000010000000000100000000000000000000000000000,
12121122,
100000000000200000000000100000010000000000050000
000000000000000000000008000000000000000000000000,
300000000000000000000000200000020000000000000000
300000000000200000000000100000000000000000000000,
500000000000000000000000000000000000000000000008
000000000000000000000000300000000000000000000000,
#MEASURE 6/4
#BPMCHANGE 199.5
#SCROLL 0.67
101200101200,
101201100200,
101200101200,
101201100200,
101201100200,
101201100200,
100000100200000100100000000200050000,
000000000000000000000008000000000000300000000000,
#MEASURE 4/4
#BPMCHANGE 133
#SCROLL 1
1001102010011020,
1001102010011010,
2002202020022020,
1001102010020020,
1001102010011020,
1001102010011010,
1001102010100110,
2010100110203000,
#GOGOSTART
1000200110102010,
1011011000220220,
1002200010102001,
1000000022022000,
2022200010111000,
2022200010111000,
2002001010101000,
3333,
1000101010222000,
1000101010222000,
1122,
1000101010222000,
1011101020102000,
1011101020102000,
2022202020102000,
2022202020102000,
9,
8,
3003003000000000,
#GOGOEND
#END

COURSE:Normal
LEVEL:3
BALLOON:10,8,7,7,10
SCOREINIT:3780
SCOREDIFF:0
#START
#MEASURE 1/64
#SCROLL 1
,
#SCROLL 1.14
,
#SCROLL 1.31
,
#SCROLL 1.5
,
#SCROLL 1.71
,
#SCROLL 1.96
,
#SCROLL 2.24
,
#SCROLL 2.57
,
#SCROLL 2.94
,
#SCROLL 3.36
,
#SCROLL 3.85
,
#SCROLL 4.4
,
#SCROLL 5.04
,
#SCROLL 5.76
,
#SCROLL 6.59
,
#SCROLL 7.54
,
#SCROLL 8.63
,
#SCROLL 9.88
,
#SCROLL 11.3
,
#SCROLL 12.93
,
#SCROLL 14.79
,
#SCROLL 16.93
,
#SCROLL 19.37
,
#SCROLL 22.16
,
#SCROLL 25.36
,
#SCROLL 29.01
,
#SCROLL 33.2
,
#SCROLL 37.99
,
#SCROLL 43.46
,
#SCROLL 49.73
,
#SCROLL 56.9
,
#SCROLL 65.11
,
#MEASURE 2/4
#SCROLL 74.5
,
#MEASURE 4/4
#SCROLL 1
12,
1,
12,
1,
12,
12,
1120,
4443,
1110,
10010100,
1110,
10010100,
10101110,
10101110,
10101110,
500000000000000000000008000000000000300000000000,
11,
1012,
11,
3430,
11,
1012,
1012,
#MEASURE 5/4
70
#BPMCHANGE 266
#SCROLL 0.5
00
#BPMCHANGE 133
#SCROLL 1
8,
#MEASURE 4/4
1110,
11,
1110,
11,
1110,
1110,
1110,
7008,
10010010,
10010010,
10010010,
1,
10010010,
10010010,
10011010,
500000000000000000000008000000000000300000000000,
#MEASURE 8/4
#BPMCHANGE 266
#SCROLL 0.5
10101110,
7008,
10101110,
7008,
11102220,
100000100000100000000500000000000000000008000000,
3031,
500000000000000000000000000000000000000000000008
000000000000000000000000300000000000000000000000,
#MEASURE 6/4
#BPMCHANGE 199.5
#SCROLL 0.67
1210,
101100100000,
1210,
101100100000,
101100100000,
101100100000,
100010100000100000000500,
000000000000000000000008000000000000300000000000,
#MEASURE 4/4
#BPMCHANGE 133
#SCROLL 1
10011001,
10011020,
20022002,
10012010,
10011001,
10011020,
10011010,
01101030,
#GOGOSTART
1212,
1001001000200020,
1212,
12,
2211,
2211,
2002001010101000,
3333,
10111020,
10111020,
1122,
10111000,
10111120,
10111120,
10111220,
10111220,
9,
8,
3003003000000000,
#GOGOEND
#END

COURSE:Easy
LEVEL:2
BALLOON:5,5,5,5,8
SCOREINIT:7140
SCOREDIFF:0
#START
#MEASURE 1/64
#SCROLL 1
,
#SCROLL 1.14
,
#SCROLL 1.31
,
#SCROLL 1.5
,
#SCROLL 1.71
,
#SCROLL 1.96
,
#SCROLL 2.24
,
#SCROLL 2.57
,
#SCROLL 2.94
,
#SCROLL 3.36
,
#SCROLL 3.85
,
#SCROLL 4.4
,
#SCROLL 5.04
,
#SCROLL 5.76
,
#SCROLL 6.59
,
#SCROLL 7.54
,
#SCROLL 8.63
,
#SCROLL 9.88
,
#SCROLL 11.3
,
#SCROLL 12.93
,
#SCROLL 14.79
,
#SCROLL 16.93
,
#SCROLL 19.37
,
#SCROLL 22.16
,
#SCROLL 25.36
,
#SCROLL 29.01
,
#SCROLL 33.2
,
#SCROLL 37.99
,
#SCROLL 43.46
,
#SCROLL 49.73
,
#SCROLL 56.9
,
#SCROLL 65.11
,
#MEASURE 2/4
#SCROLL 74.5
,
#MEASURE 4/4
#SCROLL 1
1,
,
1,
,
1,
1,
11,
4443,
11,
1,
11,
1,
11,
11,
1011,
12,
1,
1,
11,
3330,
1,
1,
11,
#MEASURE 5/4
70
#BPMCHANGE 266
#SCROLL 0.5
00
#BPMCHANGE 133
#SCROLL 1
8,
#MEASURE 4/4
22,
2,
22,
2,
1,
1,
11,
7008,
1001,
1001,
1002,
2,
1001,
1001,
11,
500000000000000000000000000008000000000000000000,
#MEASURE 8/4
#BPMCHANGE 266
#SCROLL 0.5
1110,
7008,
1110,
7008,
12,
500000000000000000000000000000000008000000000000,
33,
500000000000000000000000000008000000000000000000,
#MEASURE 6/4
#BPMCHANGE 199.5
#SCROLL 0.67
1110,
1,
2220,
2,
1110,
1110,
10002005,
000000000000000000000008000000000000000000000000,
#MEASURE 4/4
#BPMCHANGE 133
#SCROLL 1
11,
12,
22,
11,
11,
12,
5,
000000000000000000000000000008000000000000000000,
#GOGOSTART
11,
1,
1110,
12,
1110,
1110,
22,
3330,
11,
11,
12,
12,
1110,
1110,
1120,
1120,
9,
8,
3003003000000000,
#GOGOEND
#END
