//TJADB Project
TITLE:Denshi-drum no Tatsujin
TITLEJA:電子ドラムの達人
SUBTITLE:--Phenotas feat. Miko
SUBTITLEJA:ふぇのたす
BPM:176
WAVE:Denshi-drum no Tatsujin.ogg
OFFSET:-1.814
DEMOSTART:45.443

COURSE:Oni
LEVEL:9
SCOREINIT:390
SCOREDIFF:80
#START
100000000000100000000000100000020020200000002000,
100000001000000000001000100000020020200000002000,
100000002000200000001000100100100100200000002000,
101102200000,
1010001021111000,
1010001012111000,
1010001011211000,
1010001011121000,
1010001011112000,
1010001011121000,
1010001011211000,
1010001012111000,
1022101020002010,
1022101020002000,
1022101020002010,
1022101020201000,
1022101020002010,
1022101020002000,
1120200011202000,
30304210,
1011200010112000,
1011201120201000,
1000100120221020,
1000100120221000,
1111200011112000,
1111201111201000,
1000100210112020,
1000100210112010,
1022102210201020,
1000100010222010,
1000201110002010,
3330,//32
#GOGOSTART
1111222211222000,
1111222211122000,
1111102022222010,
1011202210221000,
1112200011112000,
1111102020221010,
1020221010202210,
1022122010000000,
1111222211222000,
1111222211122000,
1111102022222010,
1011202210221000,
1112200011112000,
1111102020221010,
1020221010202210,
1022122010221220,
1111,
500000000000000000000000000000000008000000000000,//50
#GOGOEND
1001101011222020,
1001101011222020,
1001101011222020,
1001101011222020,
1002102012221020,
1002102012221020,
1002102012221020,
1002102012221222,
1010002021111000,
1010001022111000,
1010001012211000,
1010001011221000,
1010001011122000,
1010001011221000,
1010001012211000,
1010001022111000,
2020201120202000,
2222101020201000,
2222100022221000,
2222201010201000,
1111201020001000,
1111201020001000,
10011001,
12121000,//74
#GOGOSTART
1122112211221000,
1222122212221000,
1112202022211010,
1011202210221000,
1112200011112000,
1111102022202010,
1022201010222010,
1011102220201000,
1122112211221000,
1222122212221000,
1112202022211010,
1011202210221000,
1112200011112000,
1111102022202010,
1022201010222010,
1011102220201000,
1111,
500000000000000000000000000000000008000000000000,//92
#GOGOEND
1010002011112000,
1010002011121000,
1010002011211000,
1010002012111000,
1010002011122000,
1010002011221000,
1010002012211000,
1010002022111000,
3,
#END

COURSE:Hard
LEVEL:7
#START
1110,
101001100000,
100001100000,
200202200000,
1000100022202000,
1000100022202000,
2000200011101000,
2000200011101000,
1000100022202000,
1000100022202000,
2000200011101000,
2000200011101000,
11011021,
1011101010002000,
11011021,
1011101010002000,
11011021,
1011101010002000,
1022200010002000,
30303220,
1011100010111000,
1000102022201000,
1000100220200010,
1000100020222000,
1110100011101000,
1000102220201000,
1000100220200010,
1000100022202000,
1000001010222000,
1000100010222000,
1000001010222000,
3330,//32
#GOGOSTART
1011101010202000,
1011101010202000,
500000000008000000000000200000200200200000200000,
2000200220001000,
1011100010111000,
10222221,
10211021,
1022202020001000,
1011101010202000,
1011101010202000,
500000000008000000000000200000200200200000200000,
2000200220001000,
1101100022022000,
10222221,
10211021,
1011100020222000,
1111,
500000000000000000000000000000000008000000000000,//50
#GOGOEND
2002200020000000,
2002200020000000,
2002200020000000,
2002200020000000,
1001100010001000,
1001100010001000,
1001100010001000,
1001100010111010,
1000100022202000,
1000100022202000,
2000200011101000,
2000200011101000,
1000100022202000,
2000200011101000,
1000100022202000,
2000200011101000,
1010101110002000,
1011101010002000,
1011100020202000,
1011101010002000,
1011101020001000,
1011101020001000,
10011001,
3330,//74
#GOGOSTART
1011101010202000,
1011101010202000,
500000000008000000000000200000200200200000200000,
2000200220001000,
1011100010111000,
10222221,
10211021,
1011102020001000,
1011101010202000,
1011101010202000,
500000000008000000000000200000200200200000200000,
2000200220001000,
1101100022022000,
1011102020202010,
10211021,
1011100020222000,
1111,
500000000000000000000000000000000008000000000000,//92
#GOGOEND
1010002011102000,
1010002011102000,
2020001022201000,
2020001022201000,
1010002011102000,
2020001022201000,
1010002011102000,
2020001022202220,
3,
,
#END

COURSE:Normal
LEVEL:6
BALLOON:8,8
#START
1110,
110100,
11,
2220,
10101110,
10101110,
10101110,
10101110,
20202220,
20202220,
20202220,
20202220,
10011000,
1110,
10011000,
2220,
10011000,
1110,
11,
4440,
11101110,
0110,
10101100,
1110,
22202220,
0220,
20202200,
2220,
10011000,
1110,
10011000,
3330,//32
#GOGOSTART
11111010,
11111010,
500000000000000000000008000000000000100000000000,
1110,
11101110,
00111011,
10022002,
2220,
11111010,
11111010,
500000000000000000000008000000000000100000000000,
1110,
11101110,
00111011,
10022002,
2222,
7,
8,//50
#GOGOEND
22,
22,
2220,
2220,
11,
11,
1110,
1110,
10101110,
10101110,
10101110,
10101110,
20202220,
20202220,
20202220,
20202220,
500000000000000000000008000000000000200000000000,
500000000000000000000008000000000000200000000000,
11101110,
500000000000000000000008000000000000200000000000,
500000000008000000000000200000000000000000000000,
500000000008000000000000200000000000000000000000,
11,
3330,//74
#GOGOSTART
11111010,
11111010,
500000000000000000000008000000000000100000000000,
1110,
11101110,
00111011,
10022002,
2220,
11111010,
11111010,
500000000000000000000008000000000000100000000000,
1110,
11101110,
00111011,
10022002,
2222,
7,
8,//92
#GOGOEND
10101110,
10101110,
20202220,
20202220,
10101110,
20202220,
10102220,
10102220,
3,
,
#END

COURSE:Easy
LEVEL:4
#START
11,
11,
11,
2220,
1011,
1011,
1011,
12,
1011,
1011,
1011,
12,
11,
1110,
22,
2220,
11,
1110,
22,
3330,
11,
0110,
1110,
1110,
22,
0220,
2220,
2220,
11,
1110,
11,
3330,//32
#GOGOSTART
1110,
1110,
11,
1110,
22,
0220,
22,
2220,
1110,
1110,
11,
1110,
22,
0220,
22,
2222,
500000000000000000000000000000000008000000000000,
1,//50
#GOGOEND
22,
22,
2220,
2220,
11,
11,
1110,
1110,
1011,
1011,
1011,
12,
1011,
1011,
1011,
12,
2222,
2222,
22,
2222,
2022,
22,
11,
3330,//74
#GOGOSTART
1110,
1110,
11,
1110,
22,
0220,
22,
2220,
1110,
1110,
11,
1110,
22,
0220,
22,
2222,
500000000000000000000000000000000008000000000000,
2,//92
#GOGOEND
1011,
1011,
1011,
12,
1011,
1011,
1011,
12,
3,
,
#END
