//TJADB Project
TITLE:Arc
TITLEJA:弧
SUBTITLE:--Gainen
SUBTITLEJA:概念
BPM:190
WAVE:Arc.ogg
OFFSET:-0.649
DEMOSTART:91.599

COURSE:Oni
LEVEL:10
BALLOON:8,3
SCOREINIT:880
SCOREDIFF:0
#START
1022102102102010,
2020202222102010,
1022102102102010,
2022221022122010,
1022102102102010,
2020202222102010,
1011211012221020,
1222122212121210, //8
1022102102102010,
2020221220102010,
1022102102102010,
2202201202101020,
1022102102102010,
1010101210101012,
1011211012221011,
2211221121212000, //16
1022102210221102,
1020210222112221,
1000222220102010,
0010001000102222,
1120211011120211,
1021020222122210,
1110222011120222,
1110220222112211, //24
1022101220100010,
0010221012201210,
1012202210100010,
0010222210201222,
1022101220100010,
0010221012201210,
1012202210100010,
0010122212121222, //32
1120102110221220,
1220102210221120,
1120102110221110,
1220102270000080,
1120102110221220,
1220102210221120,
1120102110221110,
1220102210222222, //40
1122102210112212,
1012102012121122,
1122102211221212,
100010001000100010001000100200200200100200100200,
1010101210221212,
1010101212221212,
1020201110202011,
1012101122121222, //48
#GOGOSTART
1020201202102011,
100100200100200111100200,
1010201202102011,
100000100000200000100200100000202010100000200000,
1020201202102011,
100100200100200111100200,
1022202012202020,
1010101011111212, //56
1021102010211020,
000000200000100000200100100000101010100000200000,
1021102010121020,
000000200000100000200100100000202010100000200000,
1020101210201012,
100000200000100000100200100000101010100000100200,
100111100100111100100111,
1222122212121212, //64
#GOGOEND
1121211111212111,
1121211112221121,
1121211111212111,
2020111120020020,
1112111111212111,
1112111112221121,
2020111120201111,
2111211121212111, //72
#GOGOSTART
1112102102102010,
1222122210202020,
1112102102102010,
1202101202122212,
1112102102102010,
1222122210202020,
1011222012222011,
2211221121212121, //80
#GOGOEND
02220201,
100200000200200222200100,
12211212,
1212122122122000,
1020201202102022,
100200200000100000200100100000202020200000200000,
1011212021212010,
1012101210107080, //88
#GOGOSTART
1110101010111010,
100100100000100100100000101010100100100100100100,
1211201212201211,
200010001000200020001000200010001000200200100100,
1012101012101121,
100000202020200000200000200200100200200000200000,
200100202020200000200100202020200000200100202020,
2222112212121212, //96
#GOGOEND
0020202011211020,
000200000200100222200200,
0,
0,
0, //101
#END

COURSE:Hard
LEVEL:8
BALLOON:8
SCOREINIT:1700
SCOREDIFF:0
#START
1020100100102010,
0,
1020100100102010,
0,
1020100100102010,
0,
1011100011101000,
500000000000000000000000000000000008000000000000, //8
1020100100102010,
00210120,
1020100100102010,
00210120,
1020100100102010,
00210120,
1011100011101000,
7008, //16
1011100010200010,
00200101,
10200121,
01010100,
1011100010200010,
00200101,
1000200011102000,
1000200011102000, //24
1011100010200010,
01210101,
10210121,
01010100,
1011100010200010,
01210101,
10210121,
01010100, //32
1020100010111000,
1020100010222000,
1020100010111000,
12102000,
1020100010111000,
1020100010222000,
1020100010111000,
12102000, //40
1020102010002011,
1020102010002011,
12121020,
500000000000000000000000000000000008000000000000,
1010100010111020,
1010100010111020,
1020201110202011,
100000000000100000000000500000000000000008000000, //48
#GOGOSTART
12210101,
0010001010111000,
12210101,
0010001010222000,
12210101,
0010001010111000,
1011100011101000,
1020102010111000, //56
1000100010111020,
0020102010111000,
1000100010111020,
0020102010222000,
1010101010111000,
1010101010111000,
1011100011101000,
500000000000000000000000000000000008000000000000, //64
#GOGOEND
1011101110111000,
1011101110111000,
1011101110111000,
2020100020020020,
1011101110111000,
1011101110111000,
22102210,
20202222, //72
#GOGOSTART
1011100010201000,
2020222020202000,
1011100010201000,
2202202202202000,
1011100010201000,
2020222020202000,
1011100011101000,
500000000000000000000000000000000000000008000000, //80
#GOGOEND
02220201,
1020002020222010,
12211212,
500000000000000000000000000000000008000000000000,
12210201,
0020001010222000,
1011100011101000,
500000000000000000000000000000000008000000000000, //88
#GOGOSTART
1110100010111000,
1110100010111000,
1011101011101000,
500000000000000000000000000000000008000000000000,
1011101011101000,
2022202022202000,
1011102011101000,
500000000000000000000000000000000000000008000000, //96
#GOGOEND
02220202,
0020002010222020,
0,
0,
0, //101
#END

COURSE:Normal
LEVEL:7
BALLOON:6
SCOREINIT:3510
SCOREDIFF:0
#START
10000101,
0,
10000101,
0,
10000101,
0,
11,
500000000000000000000000000000000008000000000000, //8
10000101,
0002,
10000101,
0002,
10000101,
0002,
11,
7008, //16
10000101,
00000101,
10000101,
0,
10000101,
00000101,
11,
11, //24
10000101,
00000101,
10000101,
0,
10000101,
00000101,
10000101,
0, //32
12,
1120,
12,
1120,
12,
1120,
12,
1120, //40
11101000,
1110,
11101000,
500000000000000000000000000000000008000000000000,
11101000,
11101000,
11,
1110, //48
#GOGOSTART
10000101,
00011020,
10000101,
00011020,
10000101,
00011020,
11,
1110, //56
1111,
02121010,
1111,
02121010,
1111,
02121010,
11101110,
500000000000000000000000000000000008000000000000, //64
#GOGOEND
10101110,
10101110,
10101110,
2220,
10101110,
10101110,
2121,
2220, //72
#GOGOSTART
10101110,
11102220,
10101110,
22202220,
10101110,
11102220,
1212,
500000000000000000000000000000000000000008000000, //80
#GOGOEND
00000001,
10000001,
10011000,
500000000000000000000000000000000008000000000000,
10200120,
10200120,
1212,
500000000000000000000000000000000008000000000000, //88
#GOGOSTART
10201120,
10201120,
11201120,
500000000000000000000000000000000008000000000000,
11111010,
11111010,
11201120,
500000000000000000000000000000000000000008000000, //96
#GOGOEND
0,
00000002,
0,
0,
0, //101
#END

COURSE:Easy
LEVEL:5
BALLOON:5
SCOREINIT:5500
SCOREDIFF:0
#START
10000001,
0,
10000001,
0,
10000001,
0,
11,
500000000000000000000000000000000008000000000000, //8
10000001,
0002,
10000001,
0002,
10000001,
0002,
11,
7008, //16
10000101,
0,
10000101,
0,
10000101,
0,
11,
11, //24
10000101,
0,
10000101,
0,
10000101,
0,
10000101,
0, //32
11,
22,
11,
2,
11,
22,
11,
2, //40
1110,
1,
1110,
500000000000000000000000000000000008000000000000,
1110,
1110,
11,
1110, //48
#GOGOSTART
10000001,
00011000,
10000001,
00011000,
10000001,
00011000,
11,
1110, //56
1110,
0110,
1110,
0110,
1110,
0110,
11,
500000000000000000000000000000000008000000000000, //64
#GOGOEND
1110,
1110,
1110,
2,
1110,
1110,
22,
2, //72
#GOGOSTART
1110,
22,
1110,
22,
1110,
22,
11,
500000000000000000000000000000000000000008000000, //80
#GOGOEND
00000001,
10000001,
10011000,
500000000000000000000000000000000008000000000000,
1202,
1202,
11,
500000000000000000000000000000000008000000000000, //88
#GOGOSTART
1110,
1110,
1212,
500000000000000000000000000000000008000000000000,
1110,
1110,
1212,
500000000000000000000000000000000000000008000000, //96
#GOGOEND
0,
00000002,
0,
0,
0, //101
#END
