//TJADB Project
TITLE:Racing the Storm
TITLEJA:Racing the Storm
SUBTITLE:--George Nishigomi/Critical Velocity
SUBTITLEJA:「クリティカルベロシティ」より
BPM:148
WAVE:Racing the Storm.ogg
OFFSET:-1.842
DEMOSTART:11.571

COURSE:Oni
LEVEL:8
BALLOON:22,10,19,10,22
SCOREINIT:420
SCOREDIFF:95
#START
2100101200700000,
0008,
4,
,
0010202012010040,
,
2010102010210102,
0120102110021202,
100100000500000000000000000000000008000000200200,
1112020000000000,
2010102010210102,
0120102110021202,
100100000700000000000000000000000080000000400000,
0011202211212200,
100100100100200200200200100200000000102020200000,
0020101202001120,
0211221112120000,
2201102211201121,
2022100000102210,
1122121211221200,
1020122101022000,
3000400012010040,
000100100100111111200000,
2010102010210102,
0120102110021202,
100100000500000000000000000000000008000000400000,
1202010112121201,
2010102010210102,
0120102110021202,
1112101021012110,
1122020212121111,
7,
8001200010221111,
2010202010221120,
1010202210112020,
1010202010221120,
1010202011111220,
2111211121112111,
2111221112211122,
1112221112221112,
2217000000008000,
2010201120102021,
1010201120102011,
2010201120112021,
1011202211112211,
2010201220102021,
1010202211112211,
2010201220112021,
100000100000100100200200500000000000000008000000,
2010211210120010,
0010211210210020,
0010211210120010,
1212112211121122,
1010212210121010,
0010212210211202,
0010212210121010,
0010212211112222,
1022102010221020,
1022112011201020,
1022102010221020,
1022102211201120,
1022112010221021,
1022112111201120,
1022102111221120,
3000400012010040,
01113340,
#GOGOSTART
2010102010210102,
0120102110021202,
100100000500000000000000000000000008000000400000,
1202010112121201,
2010102010210102,
0120102110021202,
1112101021012110,
2211220212021211,
2010102010210102,
0120102110021202,
1102102211212022,
1121210121012120,
4010102010210202,
0120102110021202,
1102102012021120,
2111202211212200,
#GOGOEND
2100101200700000,
0008,
4,
#END

COURSE:Hard
LEVEL:7
BALLOON:19,8,28,10,18,10,18
SCOREINIT:360
SCOREDIFF:110
#START
1100101100700000,
0008,
4,
,
0010101011010040,
,
0010100010110101,
0110101010010101,
100100000500000000000000000000000008000000200000,
2022020000000000,
0010100010110101,
0110101010010101,
1107000000008040,
0000000000002200,
1110111011000020,
0020202202000020,
0220222020220000,
1101101030003000,
40000111,
1110111010110100,
1010101101001000,
1000200011010020,
01111120,
0010100010110101,
0110101010010101,
100100000500000000000000000000000008000000100000,
1101010101010200,
0010100010110101,
0110101010010101,
100100000500000000000000000000000000008000000000,
2022020202020000,
7,
0008,
1010101011010000,
1010101022020000,
1010101011010000,
1010101022020000,
2220202022202020,
2220202022202020,
2220222022202220,
2007000000000080,
1010101110101011,
1010101110101011,
1010101110101011,
1011101110111011,
1010101110101011,
1010101110101011,
1011101110111011,
100100500000000000000000000000000000000000000008,
0010110010110010,
0020220020220020,
0010110010110010,
2020222020202220,
0010110010110010,
0020220020220202,
0010110010110010,
000000200000200200000000500000000000000008000000,
12121212,
1020102011001000,
12121212,
1020102011001100,
32121212,
1020102022002200,
32121212,
1000200011070000,
0008,//66
#GOGOSTART
0010100010110101,
0110101110010101,
100100000500000000000000000000000008000000100000,
1101010101010200,
0010102010110101,
0110102010010101,
100100000500000000000000000000008000000000200000,
0020220202020200,
0010102010110101,
0110102010010101,
1107000000080020,
2022020202020200,
0010102010110101,
0110102010010101,
100100000500000000000000000000008000000000200000,
0020202022022200,//82
#GOGOEND
1100101100700000,
0008,
4,
,
#END

COURSE:Normal
LEVEL:5
BALLOON:12,6,8,12,20,10,11,11,11,13
#START
0100100100700000,
0008,
4,
,
0010100010010020,
,
0010100010010000,
0010100010020000,
500000000000000000000000000000000008000000400000,
,
0010100010010000,
0010100010020000,
500000000000000000000000000008000000000000700000,
0084,
12102000,
12101000,
12102000,
2233,
4,
22203030,
7008,
3000300040060000,
000000000000000000000000000000000008000000000000,
0010100010010000,
0010100010020000,
500000000000000000000000000000000008000000700000,
0008,
0010100010010000,
0010100010020000,
0020200020020000,
500000000000000000000000000000000008000000000000,
7,
0008,
1010100010010000,
1010100020020000,
1010100010010000,
1010100020020000,
10201120,
10201120,
10201120,
10222040,
11101020,
11102020,
11101020,
11102020,
11101120,
11102220,
11101120,
100000100000100000000500000000000000000000000008,
01101101,
02202202,
01101101,
7,
81101101,
02202202,
01101101,
000000200000200000000000500000000000000008000000,
10101210,
10101210,
10101210,
1133,
40101210,
1133,
40101210,
3000300040060000,
000000000000000000000000000000000008000000000000,//66
#GOGOSTART
0010100010010000,
0010100010020000,
500000000000000000000000000000000008000000700000,
0008,
0010100010010000,
0010100010020000,
500000000000000000000000000000000008000000700000,
0008,
0010101010010000,
0010101010020000,
500000000000000000000000000000000008000000700000,
0008,
0010101010010000,
0010101010020000,
500000000000000000000000000000000008000000200000,
02222040,//82
#GOGOEND
0300300300700000,
0008,
4,
,
#END

COURSE:Easy
LEVEL:4
BALLOON:15,6,7,9,17,9,9,9,9,15
#START
0700000000000000,
0008,
4,
,
00101004,
,
0000100010010000,
0000200020020000,
500000000000000000000000000008000000000000400000,
,
0000100010010000,
0000200020020000,
500000000000000000000000000008000000000000700000,
0084,
12,
1210,
12,
1011,
2,
1212,
7008,
4000400040060000,
000000000000000000000000000000000008000000000000,
0000100010010000,
0000200020020000,
500000000000000000000000000000000008000000700000,
0008,
0000100010010000,
0000200020020000,
0000100010010000,
500000000000000000000000000000000008000000000000,
7,
0008,
11101000,
11102000,
11101000,
11102000,
1212,
1212,
1212,
1112,
1220,
1220,
1220,
1220,
1222,
1222,
1222,
100000000000500000000000000000000000000008000000,
01101000,
02202000,
01101000,
7,
81101000,
02202000,
01101000,
02202000,
1111,
1122,
1111,
1144,
4111,
1144,
4111,
4000400040060000,
000000000000000000000000000000000008000000000000,//66
#GOGOSTART
0000100010010000,
0000200020020000,
500000000000000000000000000000000008000000700000,
0008,
0000100010010000,
0000200020020000,
500000000000000000000000000000000008000000700000,
0008,
0010100010010000,
0020200020020000,
500000000000000000000000000000000008000000700000,
0008,
0010100010010000,
0020200020020000,
500000000000000000000000000000000008000000000000,
02202040,//82
#GOGOEND
0700000000000000,
0008,
4,
,
#END
