//TJADB Project
TITLE:ON SAY GO SAY
TITLEJA:ON SAY GO SAY
SUBTITLE:--AZUpubschool feat. Sho-kun
SUBTITLEJA:ショウ君
BPM:130
WAVE:ON SAY GO SAY.ogg
OFFSET:-2.041
DEMOSTART:35.267

COURSE:Edit
LEVEL:10
SCOREINIT:610
SCOREDIFF:158
#START
2001201021002010,
2001201021002010,
2011201021102010,
2011211021002010,
2112112112112121,
2002002000000000,
1020020020020010,
10002000102010001022202022202020,
1021112222212210,
1020012022122120,
10000010001022202020102010201000,
1001001020101222,
12222000201000201010201020201020,
22222020202020202000000000000000,
1022102212021020,
1022102012021010,
1022102212021020,
1022102012021022,
1022120210021020,
1022120210021020,
1022120210021020,
1022120210000000,
#GOGOSTART
100000000000100100100100202020100100202020202020,
100100100100100100200200200020002000100000000000100000100000100000000000000000000000000000000000,
100000000000100100100100202020100100202020202020,
100100100100100100200200200020002000100000000000100000100000100000000000000000000000000000000000,
#GOGOEND
2222,
22222222,
2222222222222222,
202020200200202020200200200200200200100000000000,
12222000002000002000002020001000,
10002022202010202220202022222020,
12220000001020202020201020201000,
100000200000200100200000202020200000200200000200,
20100010102010002220202020002000,
1002002040201222,
12222020202000202000001020201020,
12222010202010202000002010002222,
22222222,
2220222022221000,
1002102012021020,
1002102012021020,
#GOGOSTART
#SCROLL 2
11111110222222221010101022222000,
11111110222222221010101022222000,
#GOGOEND
#SCROLL 1
1002102010021020,
1002102010021020,
1022121022121000,
1022121022121000,
#GOGOSTART
#SCROLL 2
10221210221210001022121022121000,
10221221221221221121121121121112,
#GOGOEND
#SCROLL 4
3,
#END

COURSE:Oni
LEVEL:8
BALLOON:12,12,24,24,11,11,27
SCOREINIT:980
SCOREDIFF:255
#START
01010101,
01010430,
01010101,
01010430,
1020102010201011,
2012021000000000,
1010101012212020,
1022122012222010,
1220122012221220,
100200200200200200100100100100500008000000000000,
200000200000200200200100200200000100500008000000,
100200200200200100200100100200000500000008000000,
00111000,
01010210,
1022102210221022,
22221000,
1022102210221022,
22221000,
01010101,
0010001022112000,
00111000,
01010430,
#GOGOSTART
000000000000100200200200101010100100700000000000,
0000802011100000,
000000000000100200200200101010100100700000000000,
0000802011100000,
#GOGOEND
02020102,
0020002022112000,
02020102,
0020100022202020,
0201202012012020,
2022122020212010,
2020202010112010,
100100200200200100100100100100500008000000000000,
100200200000200200100100200200100100500008000000,
100200200200200100100100100200200200500008000000,
0211122221112220,
2021000121110000,
00222000,
02020210,
1212221012122211,
1010101012221000,
#GOGOSTART
70000008,
70000008,
#GOGOEND
00111000,
01010210,
1022121022121000,
1022121022121000,
#GOGOSTART
70087008,
70000008,
#GOGOEND
3,
#END

COURSE:Hard
LEVEL:7
BALLOON:5,5,15
SCOREINIT:840
SCOREDIFF:245
#START
01010101,
01010430,
01010101,
01010430,
12121211,
4022022000000000,
11112020,
10102222,
1010101020202220,
1011101110200000,
2020222011015080,
1010111010050080,
00111000,
01010430,
12121212,
22221000,
12121212,
22221000,
01010101,
0010001011104000,
00111000,
01010430,
#GOGOSTART
0000111010105000,
00000008000020002020200000000000,
0000111010105000,
00000008000020002020200000000000,
#GOGOEND
02020102,
0020002022204000,
02020102,
0040300022204000,
0101101011011010,
1011101020222020,
1010101010111010,
10101000100000101000500800000000,
1110111011115080,
2220222022205080,
0110111011011100,
50000008000000202020202000000000,
00222000,
02020220,
1110111022222020,
1010101011101000,
#GOGOSTART
1110111110101110,
1110111110101110,
#GOGOEND
00111000,
01010430,
1022201022201000,
1022201022201000,
#GOGOSTART
70817081,
70000081,
#GOGOEND
3,
,
#END

COURSE:Normal
LEVEL:6
SCOREINIT:890
SCOREDIFF:293
BALLOON:4,4
#START
01010101,
01010440,
01010101,
01010440,
1111,
4,
1122,
10102220,
11102220,
10102200,
2222,
1000101010050080,
00111000,
01010440,
1111,
22222000,
1111,
22222000,
01010101,
01010340,
00111000,
01010440,
#GOGOSTART
00111150,
00000008000020002000200000000000,
00111150,
00000008000020002000200000000000,
#GOGOEND
02020202,
02024040,
02020202,
04404440,
10111011,
1122,
10101011,
10000000100000500000000800000000,
10101110,
20202220,
0100100010010000,
50000008000000002000200000000000,
00222000,
02020440,
11102220,
10101110,
#GOGOSTART
31317008,
1110111110101110,
#GOGOEND
00111000,
01010440,
10110110,
10110110,
#GOGOSTART
11011101,
11111111,
#GOGOEND
3,
,
#END

COURSE:Easy
LEVEL:4
SCOREINIT:830
SCOREDIFF:405
#START
01010101,
01010030,
01010101,
01010030,
1111,
3,
12,
1022,
21,
2011,
12,
10005008,
0110,
01010030,
1111,
1110,
1111,
1110,
01010101,
01010040,
0110,
01010040,
#GOGOSTART
0115,
00000008000000001000000000000000,
0115,
00000008000000001000000000000000,
#GOGOEND
02020202,
02020040,
02020202,
04004040,
0111,
0220,
1110,
2220,
1110,
2022,
0110,
50000008000000002000000000000000,
0220,
02020030,
1111,
1111,
#GOGOSTART
50000008,
50000008,
#GOGOEND
0110,
01010030,
1111,
1111,
#GOGOSTART
50085008,
50000008,
#GOGOEND
3,
,
#END
