//TJADB Project
TITLE:Challengers
TITLEJA:Challengers
SUBTITLE:--marulon
SUBTITLEJA:まるろん
BPM:125
WAVE:Challengers.ogg
OFFSET:-0.960
DEMOSTART:60.000

COURSE:Oni
LEVEL:10
BALLOON:25
SCOREINIT:1320
SCOREDIFF:0
#START
2022,
2022,
2022,
2011,
2222,
2220,
2222,
22,
#GOGOSTART
#BPMCHANGE 250
3,
0000000000002222,
1000000000002222,
1000221000221000,
3000000000002222,
102020202022,
100000202020100000200200,
100010001000100010001000100100100100100000000000,
#GOGOEND
3,
,
,
000000000000000011200000,
100202101202,
222101222102,
100202101201,
001202122102,
100202102001,
002200100200,
1212,
111222111222,
100202101002,
222101222102,
100102101201,
000000000010000200002000020000100000200000200000200000200000,
111,
101111,
101110101011,
100010100010100010101111,
#MEASURE 7/4
102100102102112100100,
100020100020102020100000100000000100000000,
#MEASURE 5/4
100000000000100000000000100000002000100000002000100200200200,
100000002000100020002000100000002000100020002000100200200200,
101010102102202,
100100100111222,
#MEASURE 7/4
102100102102112100100,
100020100020102020100000100000000200000000,
#MEASURE 4/4
1010202011221212,
100000100000200020001000100000200000100200100200,
111222111222,
100000010000002000000200000010000002000000100000200000100000200000100000200000100000,
2000000000000002,
2,
#GOGOSTART
100010200000101110200020,
100010201010201110200010,
200020100000101110200020,
100020000010201110200010,
200020100010201110200020,
100010200020101110202020,
101200101200,
#GOGOEND
222,
#GOGOSTART
100010000010200010111020,
100020111020100020111020,
102112112112,
11102020111020201110,
2222,
222,
202212212212,
2010202010121010202010,
#GOGOEND
#MEASURE 7/4
7,
8,
,
,
200202100201001002100,
200202100211200200211,
#MEASURE 5/4
200000002000000020000000100020002000100000000000100000000200,
#MEASURE 2/4
#BARLINEOFF
2020211111,
#BARLINEON
#MEASURE 4/4
200202100211,
2222,
#GOGOSTART
100010200000101110200020,
100010201010201110200010,
200020100000111010200020,
111111,
100010200020101110201020,
101202002102,
100000002000500000000000000000000008000000001000,
#GOGOEND
333,
#GOGOSTART
300020000020101110200020,
100222111222,
323232,
33333,
500000000000000000000000000000000000000008000000,
300211200200,
202020005000000000000000000000080000100000000000,
201110200020000010222010,
#MEASURE 7/4
100000000000100000000000100000002000100000002000100000200000100200200200100000000000,
1020102210221022100000300000,
#MEASURE 5/4
100000000000100000000000100000200200100000200000100020002000,
102220100200100020102020102220,
100020002000100020002000100020002000100000200200100020002000,
100020202000100020002000100200200200100200100200100200200200,
100100122122102,
#MEASURE 6/4
100020102220102220102220102220101010,
#GOGOEND
#MEASURE 7/4
400300003000300003000,
#MEASURE 4/4
6,
,
000000000000000000000000000000000008000000000000,
#END

COURSE:Hard
LEVEL:8
BALLOON:15
SCOREINIT:2390
SCOREDIFF:0
#START
2022,
2022,
2022,
2011,
2222,
2220,
2222,
22,
#GOGOSTART
#BPMCHANGE 250
3,
0002,
1002,
10210210,
3002,
122222,
100000202020100000200200,
10101110,
#GOGOEND
3,
,
,
0002,
100200102201,
002200100200,
100200100201,
0212,
100202101001,
002200100200,
1212,
500000000000000000000000000000000008000000000000,
100200101002,
1212,
100100101001,
0210,
111,
101111,
111111,
101101101101,
#MEASURE 7/4
100100102100100100102,
100000100000100000100020100000000100000000,
#MEASURE 5/4
100100102100100,
100102100100100,
101010101101100,
11112,
#MEASURE 7/4
100100102100100100102,
100000100000100000100020100000000200000000,
#MEASURE 4/4
3,
33,
6,
000000000000000000000000000000000000000000008000,
,
4,
#GOGOSTART
100200101101,
1212,
102200100200,
102001000000,
100200101101,
1212,
102200100200,
#GOGOEND
222,
#GOGOSTART
101001000200,
102200102200,
112200112200,
12121,
500000000000000000000000000000000008000000000000,
500000000000000000000000000000000008000000000000,
333,
33,
#GOGOEND
#MEASURE 7/4
7,
8,
,
,
200202200000001001100,
200202200000000100100,
202020100000000100100,
#MEASURE 4/4
200202200000,
2222,
#GOGOSTART
100200101101,
1212,
102200100200,
111111,
1212,
100101001101,
100000001000500000000000000000000008000000001000,
#GOGOEND
133,
#GOGOSTART
300000101101,
1212,
333,
33333,
500000000000000000000000000000000000000008000000,
300222200200,
500000000000000000000008000000000000100000000000,
200202002201,
#MEASURE 7/4
100100101101100100100,
11101110100300,
#MEASURE 5/4
100000100000100000100200100020,
100000100200100020100000100200,
102100102100102,
100020100020100200100200100000,
200100202102102,
#MEASURE 6/4
100100100100100111,
#GOGOEND
#MEASURE 7/4
400300003000300003000,
#MEASURE 4/4
6,
,
000000000000000000000000000000000008000000000000,
#END

COURSE:Normal
LEVEL:7
BALLOON:10
SCOREINIT:3410
SCOREDIFF:0
#START
2022,
2022,
2022,
2011,
2222,
2220,
2222,
22,
#GOGOSTART
#BPMCHANGE 250
3,
0002,
1002,
10010010,
3002,
11,
11,
1111,
#GOGOEND
3,
,
,
0002,
100200100001,
0210,
100200100001,
0210,
1110,
1110,
1111,
500000000000000000000000000000000008000000000000,
11,
1210,
11,
1210,
111,
111,
111,
11,
#MEASURE 7/4
1112111,
20101010200200,
#MEASURE 5/4
11121,
11212,
101010101100100,
11112,
#MEASURE 7/4
1112111,
20101010200200,
#MEASURE 4/4
3,
33,
6,
000000000000000000000000000000000000000000008000,
,
4,
#GOGOSTART
1110,
1212,
1100,
102001000000,
11,
1210,
1212,
#GOGOEND
122,
#GOGOSTART
102001000000,
1212,
1122,
11111,
500000000000000000000000000000000008000000000000,
500000000000000000000000000000000008000000000000,
333,
33,
#GOGOEND
#MEASURE 7/4
7,
8,
,
,
2020000,
2020000,
2020000,
#MEASURE 4/4
22,
2222,
#GOGOSTART
1110,
1212,
1102,
500000000000000000000000000000000008000000000000,
1212,
1212,
100000000000500000000000000000000008000000000000,
#GOGOEND
333,
#GOGOSTART
3011,
1122,
333,
33333,
500000000000000000000000000000000000000008000000,
3222,
500000000000000000000008000000000000100000000000,
200202000200,
#MEASURE 7/4
1111111,
10101010100300,
#MEASURE 5/4
11121,
11211,
12121,
12211,
12121,
#MEASURE 6/4
122121,
#GOGOEND
#MEASURE 7/4
400300003000300003000,
#MEASURE 4/4
6,
,
000000000000000000000000000000000008000000000000,
#END

COURSE:Easy
LEVEL:5
BALLOON:8
SCOREINIT:4780
SCOREDIFF:0
#START
2022,
2022,
2022,
2011,
2222,
2220,
2222,
22,
#GOGOSTART
#BPMCHANGE 250
3,
,
1,
10010010,
3,
11,
11,
11,
#GOGOEND
3,
,
,
,
100000100001,
,
100000100001,
,
1110,
1110,
1110,
500000000000000000000000000000000008000000000000,
11,
1,
11,
1,
111,
111,
111,
11,
#MEASURE 7/4
1110111,
00101010100200,
#MEASURE 5/4
11101,
11011,
10101,
01010,
#MEASURE 7/4
1110111,
00101010100200,
#MEASURE 4/4
3,
33,
6,
000000000000000000000000000000000000000000008000,
,
4,
#GOGOSTART
11,
1110,
1100,
1,
11,
11,
1,
#GOGOEND
122,
#GOGOSTART
1,
11,
11,
1,
500000000000000000000000000000000008000000000000,
500000000000000000000000000000000008000000000000,
333,
33,
#GOGOEND
#MEASURE 7/4
7,
8,
,
,
2020000,
2020000,
2020000,
#MEASURE 4/4
22,
2,
#GOGOSTART
11,
1110,
1100,
500000000000000000000000000000000008000000000000,
11,
11,
100000000000500000000000000000000008000000000000,
#GOGOEND
333,
#GOGOSTART
3011,
11,
333,
3,
500000000000000000000000000000000000000000000008,
,
500000000000000000000000000000000000000000000008,
,
#MEASURE 7/4
1110111,
00101010100300,
#MEASURE 5/4
10101,
01010,
11101,
11011,
11101,
#MEASURE 6/4
111111,
#GOGOEND
#MEASURE 7/4
400300003000300003000,
#MEASURE 4/4
6,
,
000000000000000000000000000000000008000000000000,
#END
