//TJADB Project
TITLE:DEBSTEP!
TITLEJA:DEBSTEP!
SUBTITLE:--Yajuu
SUBTITLEJA:やじゅ
BPM:130
WAVE:DEBSTEP!.ogg
OFFSET:-7.486
DEMOSTART:14.863

COURSE:Oni
LEVEL:10
SCOREINIT:350
SCOREDIFF:90
#START
#MEASURE 8/4
#SCROLL 0.5
10000010200000101100100020000000,
10000010200000101100100020000000,
100000200200200200200200100200000200100100200100102020202020100000100000100100200100100200200200,
100000002000200020002000100010001000101010202020100100200200100010001000202010100200101020200000,
100000200020002000100100201010002010020002000200100000000000100200200200100200200000102020200200,
100000000000100100200200100200200000100100200100102020202020100200200200100000100200100020002000,
100000100000000000100000200000000000100000000000101020200000102020202020100000202010100020002000,
100000100000000000100000200000000000100000000000101010202020200010001000200100100200100010002000,
100100200100000200000100200200200100202020202020100000200000101010202020100200200000100100100200,
100000000000100000000000200000000000202020200200101010200000100000200200100100200200100200200200,
1,
100000000000100000000000100000000000100000000000100000100000100000100000101010101010200000000000,//12
#MEASURE 4/4
#GOGOSTART
#SCROLL 1
100002100000100002100000,
100002100000100002100102,
100002100000100002100000,
100002100000122202100102,
100002100000111202100102,
100000200020100000101010100000200200100000100020,
102002002102100202100202,
101010100200100100200200101020200200101010202020,
100000100020100000100200101020200000101010202020,
100000100020100000100200101010202020100000100020,
101010101010202020202020100010001000200020002000,
101020200020100020002000100200100200100100202020,
100000100020102020102020100020002000100200200200,
100000100020100100200200101020200000100200100000,
101010101010202020202020100100200200101020102010,
100000100020101010201010100100100100100020002000,//28
#GOGOEND
122222122222,
122222122222,
122122122122,
101111200200,//32
#MEASURE 8/4
#SCROLL 0.5
#GOGOSTART
100101202122100101202102,
122102101012102121200200,
101020100020101010201010111220002000100020002211,
111202101122111111200200,//36
#GOGOEND
200000200000200000200000200200200200200200200200202020202020202020202020202020202020100000000000,//37
#MEASURE 4/4
#SCROLL 1
#GOGOSTART
100000100020100000200200100010001000202020200200,
200000200020100200200200102020102020102020102020,
100010001000202010202020100000100020100020200020,
100000100020100020002000101010202020100200202020,
101010100200100100201010202020200200100020002000,
100000000000101010202020100010001000202020202020,
100000100200100200100200100020002000100000202020,
101010200200100200101010200000200000202020202020,
100000202020100000200000101010100100100010001010,
200000100020101010202020100010002020100010002000,
101010101010101010202020101020202020101020201010,
101010202020100001000020100020002000102020200200,
100200100200101020101020200100100000100000202020,
101010100200101010202020100200101010201010201010,
200020001000102020200200100200100100100200100200,
101010100200100010001000200020002000101010202020,//53
#GOGOEND
1,
#END

COURSE:Hard
LEVEL:8
#START
#MEASURE 8/4
#SCROLL 0.525
10000010200000101100100020000000,
10000010200000101100100020000000,
10222220220011111000200011220221,
100000002000200020002000100010001000100000000000100100100100100000000000200000200000200000000000,
100000200020002000000000100000001000020002000200100000000000200200200200000200200000100000200200,
100000000000100100100100100000000000200200200200200000000000100100100100100000100100100020002000,
100000100000000000100000200000000000100000000000200200200000100100100100100000200200200020002000,
100000100000000000100000200000000000100000000000100100100100100010001000200200200200200020002000,
10210201102102011020111110201111,
10001000200022221020100022221111,
1,
100000100000100000100000100100100100508000200000,//12
#MEASURE 4/4
#GOGOSTART
#SCROLL 1
100001100000100001100000,
100001100000100001100100,
100001100000100001100000,
100001100000100001100100,
100002100000100201100000,
100002100000100201100000,
102002002100100201100200,
1022101022221010,
100101100100101100100200,
100101100200101100100200,
500008000000500008000000100010001000200020002000,
100020200000100020002000100100100100200200200200,
100101100100102020100200,
100000100010100000100000100000200000100100200000,
500008000000500008000000100100200200100000200000,
100000100010100000200000100100100100100020002000,//28
#GOGOEND
1212,
1212,
1111,
500000000000000008000000200000000000200000000000,//32
#MEASURE 8/4
#SCROLL 0.525
#GOGOSTART
100100202201100100202201,
102102102020102102100200,
102101101200102020102020,
102101101200111111200200,//36
#GOGOEND
200000200000200000200000200200200000200200200000500000000000000000000000000008000000100000000000,//37
#MEASURE 4/4
#SCROLL 1
#GOGOSTART
100101100100102020100200,
100101100100102020100200,
101010100200100101100200,
100101102020100101100200,
100100100100100000200000100100100100100020002000,
100000100200101010100200,
100000100100100100100000100020002000100000200000,
100000100010100000100000200000200000500008000000,
1022102010111020,
100101100100102020102020,
5,
000080000010000010000020100020002000500008000000,
100200100200100020002000100100100000100000200000,
1010112010101120,
100020002000100000000200100200100000100200100200,
500008000000100010001000200020002000500008000000,//53
#GOGOEND
1,
#END

COURSE:Normal
LEVEL:7
#START
#MEASURE 8/4
#SCROLL 0.525
1002200110102000,
1002200110102000,
10220010220010022000000010220000,
100020200010100020200000100000000000200200200000,
100000100000000000000000100000001000000000000000100000000000200200000100000200200000100000000000,
100000000000100000000200200000000000100000000200200000000000100000000200200000000000200020000000,
100100000200200000100000100100200200100100202000,
100100000200200000100000100100202000100100202000,
10220000102200002020002020200010,
10002000200022022010100022022010,
1,
1010101011111020,//12
#MEASURE 4/4
#GOGOSTART
#SCROLL 1
100001100000100001100000,
100001100000100001100100,
100001100000100001100000,
100001100000100001100100,
100001100000200200200000,
100001100000200200200000,
100001100100100001100100,
100001100100200200200000,
100200100200100001100100,
100200100200100001100100,
5,
000000000000000000000000000000000008000000000000,
100001100100100000100100,
100001100100100000100100,
500000000000000000000000000000000008000000000000,
100001100100200200200000,//28
#GOGOEND
1212,
1212,
1111,
500000000000000000000008000000000000200000000000,//32
#MEASURE 8/4
#SCROLL 0.525
#GOGOSTART
11221122,
12121122,
12121122,
12121122,//36
#GOGOEND
200200200200200200200200500000000008000000100000,//37
#MEASURE 4/4
#SCROLL 1
#GOGOSTART
100001100100100000100100,
100001100100100000200200,
100001100100100000100100,
100001100100100000200200,
100001100100100001100100,
100001100100200200200000,
100001100100100001100100,
100001100100200200200000,
100200100200100001100100,
100200100200100001100100,
5,
000000000000000000000000000000000008000000000000,
100001100100100001100200,
100001100100100001100200,
10101121,
500000000000000000000000000000000008000000000000,//53
#GOGOEND
1,
#END

COURSE:Easy
LEVEL:5
#START
#MEASURE 8/4
#SCROLL 0.525
10201120,
10201120,
10020010200010002000000010200000,
102000102000100000200200,
100000000000100010000000100000200001020000100000,
100100200102000102000000,
10201212,
10201212,
102000102000200000200200,
100200200202000100202000,
1,
1010101011101020,//12
#MEASURE 4/4
#GOGOSTART
#SCROLL 1
10101011,
100000100000100001100000,
10101011,
100000100000100001100000,
10102220,
10102220,
10111011,
100001100100100000200000,
100000100000100001100100,
100000100000100001100100,
5,
000000000000000000000000000000000008000000000000,
100000100000100001100000,
100000100000100001100100,
500000000000000000000000000000000008000000000000,
100001100100100000200000,//28
#GOGOEND
11,
11,
1111,
500000000000000000000008000000000000200000000000,//32
#MEASURE 8/4
#SCROLL 0.525
#GOGOSTART
10201120,
10201122,
10201120,
10201122,//36
#GOGOEND
200000200000200000200000500000000008000000100000,//37
#MEASURE 4/4
#SCROLL 1
#GOGOSTART
100001100000100000100100,
100001100000100000100100,
100001100000100000100100,
100001100100100000200000,
100001100000100000100100,
100001100000100000100100,
100001100000100000100100,
100001100100100000200000,
100000200000100001100200,
100000200000100001100200,
5,
000000000000000000000000000000000008000000000000,
100001100000100001100000,
100001100000100001100000,
20201120,
500000000000000000000000000000000008000000000000,//53
#GOGOEND
1,//262combo
#END
