//TJADB Project
TITLE:Ichizu
TITLEJA:一途
SUBTITLE:--King Gnu
SUBTITLEJA:King Gnu
BPM:160
WAVE:Ichizu.ogg
OFFSET:-1.059
DEMOSTART:37.615

COURSE:Oni
LEVEL:8
BALLOON:6,6
SCOREINIT:2020
SCOREDIFF:0
#START
10210120,
10210120,
20211120,
1000201110102010,
1110201000102000,
1011201022202210,
2110201000102010,
1011201011222010, //8
1110201000102000,
1011201022202210,
2110201000102010,
1011221022201022,
1000202000102022,
1000202000102022,
1000202000102022,
1000202000102011, //16
1001201000102000,
1001201000102000,
1001201000112000,
1001201000102022,
1001201000102000,
1001201000102000,
1001201000112000,
1001201010201110,
#BARLINEOFF
#MEASURE 2/4
700000000000000000080000, //25
#BARLINEON
#MEASURE 4/4
#GOGOSTART
1110201110102010,
1012201022201220,
1110201110202010,
1022201020112220,
1110201110102010,
1012201022201220,
1110201110222022,
1021201020112220, //33
#GOGOEND
1000200000112000,
1001201110102010,
1010201110102010,
1001201010222010,
1000201110102010,
1010201110102010,
11211121,
1001201010221110,
#BARLINEOFF
#MEASURE 2/4
700000000000000000080000, //42
#BARLINEON
#MEASURE 4/4
#GOGOSTART
1110201110102010,
1012201022201220,
1110201110202010,
1022201020112220,
1110201110102010,
1012201022201220,
1110201110222022,
1021201022112220, //50
3000201120102010,
1021201000112030,
2022104000112030,
1020111011201010,
3000201120102010,
1021201000112030,
2022104000112030,
1020111011201010, //58
#GOGOEND
3,
0,
0,
0, //62
#END

COURSE:Hard
LEVEL:5
BALLOON:
SCOREINIT:3360
SCOREDIFF:0
#START
10210020,
10210020,
20210020,
10211120,
11210120,
11210220,
21210120,
11210220, //8
11210120,
11210220,
21210120,
11210121,
20220020,
20220020,
20220020,
20220020, //16
10110120,
10210120,
10110120,
1001201000202000,
10110120,
10210120,
10110120,
500000000000000000000000000000000000000000000008,
#BARLINEOFF
#MEASURE 2/4
0, //25
#BARLINEON
#MEASURE 4/4
#GOGOSTART
10201011,
01210121,
12210212,
01210220,
10201011,
01210121,
12210212,
01210200, //33
#GOGOEND
10200120,
10210120,
10110120,
1001201000202000,
10110120,
10210120,
10110120,
500000000000000000000000000000000000000000000008,
#BARLINEOFF
#MEASURE 2/4
0, //42
#BARLINEON
#MEASURE 4/4
#GOGOSTART
10201011,
01210121,
12210212,
01210220,
10210112,
01211121,
12210212,
2001201000200000, //50
30201121,
12210113,
02240113,
02011221,
30201121,
12210113,
02240113,
01020211, //58
#GOGOEND
3,
0,
0,
0, //62
#END

COURSE:Normal
LEVEL:4
BALLOON:8
SCOREINIT:5330
SCOREDIFF:0
#START
1202,
1202,
2202,
1202,
10210020,
10210020,
20210020,
10210020, //8
10210020,
10210020,
20210020,
10210020,
20020000,
20020000,
20020000,
20020000, //16
10210020,
10210020,
10210020,
10220220,
10210020,
10210020,
10210020,
500000000000000000000000000000000000000000000008,
#BARLINEOFF
#MEASURE 2/4
0, //25
#BARLINEON
#MEASURE 4/4
#GOGOSTART
10101001,
01020200,
10110001,
01020200,
10101001,
01020200,
10110001,
01020100, //33
#GOGOEND
1002,
10210020,
10210020,
10220220,
10210020,
10210020,
10210020,
500000000000000000000000000000000000000000000008,
#BARLINEOFF
#MEASURE 2/4
0, //42
#BARLINEON
#MEASURE 4/4
#GOGOSTART
10101001,
01020200,
10110001,
01020100,
10110001,
01020200,
10110001,
10110100, //50
3112,
11010003,
00040007,
0008,
3112,
10110003,
00040003,
00010010, //58
#GOGOEND
3,
0,
0,
0, //62
#END

COURSE:Easy
LEVEL:3
BALLOON:6,4
SCOREINIT:10380
SCOREDIFF:0
#START
1,
1,
2,
1,
10010000,
10010000,
20020000,
10010000, //8
10010000,
10010000,
20020000,
500000000000000000000000000008000000000000000000,
2,
2,
2,
2, //16
10010000,
10010000,
10010000,
20020000,
10010000,
10010000,
10010000,
500000000000000000000000000000000000000000000008,
#BARLINEOFF
#MEASURE 2/4
0, //25
#BARLINEON
#MEASURE 4/4
#GOGOSTART
10101001,
0,
10100001,
01000000,
10101001,
0,
10100002,
02000000, //33
#GOGOEND
1,
10010000,
10010000,
20020000,
10010000,
10010000,
10010000,
500000000000000000000000000000000000000000000008,
#BARLINEOFF
#MEASURE 2/4
0, //42
#BARLINEON
#GOGOSTART
#MEASURE 4/4
10101001,
0,
10100001,
01000000,
10100001,
01000000,
1100,
2200, //50
3110,
10010003,
00040007,
0008,
3110,
10010003,
00040003,
000000000000000000700000000000000000000000000008, //58
#GOGOEND
0,
0,
0,
0, //62
#END
