// TJADB Project
TITLE:God-ish
TITLEJA:神っぽいな
SUBTITLE:--PinocchioP feat. Hatsune Miku
SUBTITLEJA:ピノキオピー feat. 初音ミク
BPM:142
WAVE:God-ish.ogg
OFFSET:-1.826
DEMOSTART:50.588 //Shinuchi:
8810/4910/3010/1950/1410

COURSE:Edit
LEVEL:9
BALLOON:2
SCOREINIT:480,1410
SCOREDIFF:120
#START
#BARLINEOFF
0,
0,
0,
#BARLINEON
2021021021021020,
2021021022011020,
2021021021021020,
2021021021122020,
2021021021021020,
2021021022011010,
2021021021021020,
3000000000112000, //11
100000200200100200000200100200000200100000202020,
100000200200100200000200100200000200100000202020,
100000200200100200000200100200000200100000202020,
100000200200100000200000100100200200100000202020,
100000200200100200000200100200000200100000202020,
100000200200100200000200100200000200100000202020,
100000200200100200000200100200000200100000202020,
1000111110221000, //19
1022101022101111,
2210102210102211,
1021102111221122,
1022022011221222,
1022101022101111,
2210102210101111,
1021102111202011,
2222222122222221,
222222222222222222222222,
100010101010100010000200, //29
#GOGOSTART
100000100200200000100000200100200200100000202020,
1012201020304012,
100000100200100000100200100100200200100000202020,
100000200200100000200100200100100200202020101010,
100000100200200000100000200100200200100000202020,
1012201020304012,
100000100200100000100200100100200200100000202020,
500000000000000000000008000000000000100100200200, //37
100200200200100200200100200100200200100000202020,
100100200200100200200200100200100200100000202020,
100000100200200000100100200100200200100000202020,
100000100200200000100100200100200000101010202020,
100100200200100100200200200100200200100000202020,
100100200200100200200200100200100200100000202020,
100000100200200000100100200100200200100000202020,
100000202020100000202020100100100100200000200000, //45
100000200200100200000200100200000200100100202020,
100000200200100200000200100200000200100100202020,
100000200200100200000200100200000200100100202020,
100000200200100000200000100100200200100100202020,
100000200200100200000200100200000200100100202020,
100000200200100200000200100200000200100100202020,
100000200200100200000200100200000200100100202020,
#GOGOEND
1000000000112000, //53
2021021021021020,
2021021022011020,
2021021021021020,
2021021021122020,
2021021021021020,
2021021022011010,
2021021021021020,
300000000000000000000000000000700000080000000000,
0, //62
#END

COURSE:Oni
LEVEL:7
BALLOON:14,14
SCOREINIT:610,2130
SCOREDIFF:158
#START
#BARLINEOFF
0,
0,
0,
#BARLINEON
1002022020220020,
1022002000202000,
1002022020220020,
1022002000202000,
1002021020220020,
1022001000202000,
1002021020220020,
3004004000222000, //11
1020120202021040,
1020120202021040,
1020120202021040,
70000008,
1020120202021040,
1020120202021040,
1020120202021020,
3004004000221000, //19
1022201022201000,
1022201022101000,
10101212,
500000000000000000000008000000100000100100100000,
1022201022201000,
1022201022101020,
11211121,
1022102210221020,
600000000000000000000000000000000000000008000000,
202022202100, //29
#GOGOSTART
1022201220102020,
1022201110404000,
1022201220122020,
1022201010222000,
1022201220102020,
1022201110404000,
1022201220122020,
3332, //37
1011101110111010,
1011101111101040,
4011101010201040,
4011101012202000,
1011101101111010,
1011101111101040,
4011101010201021,
1021102111111010, //45
1020120212021040,
1020120212021040,
1020120212021040,
70000008,
1020120212021040,
1020120212021040,
1020120212021020,
#GOGOEND
3004004000112000, //53
1002021020220020,
1022001000202000,
1002021020220020,
1022001000202000,
1002021020220020,
1022001000202000,
1002021020220020,
3004004000222000,
0, //62
#END

COURSE:Hard
LEVEL:5
BALLOON:11,9,24,11
SCOREINIT:710,3360
SCOREDIFF:195
#START
#BARLINEOFF
0,
0,
0,
#BARLINEON
1002002020020020,
1002002000000000,
1002002020020020,
1002002000000000,
1002001020020020,
1002001000000000,
1002001020020020,
3004004000202000, //11
1020100101001000,
1020100101001000,
1020100101001000,
70000008,
1020100101001000,
1020100101001000,
1020100101001000,
7008, //19
10210210,
10210210,
10101112,
500000000000000000000000000000000008000000000000,
10210210,
10210210,
10211121,
9,
000000000000000000090000000000000000000000800000,
0004, //29
#GOGOSTART
1011101010002000,
1011101010004000,
11211210,
1011101010002000,
1011101010002000,
1011101010004000,
11211210,
3330, //37
1011101010101000,
1011101010101000,
3011101010001000,
3011101010002000,
1011101010101000,
1011101010101000,
3011101010203040,
300000400000300000400000600000000000000008000000, //45
1020100101001000,
1020100101001000,
1020100101001000,
70000008,
1020100101001000,
1020100101001000,
1020100101001000,
#GOGOEND
3004004000000000, //53
1002001020020020,
1002001000000000,
1002001020020020,
1002001000000000,
1002001020020020,
1002001000000000,
1002001020020020,
3004004000202000,
0, //62
#END

COURSE:Normal
LEVEL:3
BALLOON:8,17,7,8
SCOREINIT:770,5530
SCOREDIFF:253
#START
#BARLINEOFF
0,
0,
0,
#BARLINEON
20022000,
20020000,
20022000,
20020000,
10022000,
10020000,
10022000,
40040000, //11
1222,
1222,
1222,
70000008,
1222,
1222,
1222,
40040000, //19
10010010,
10010010,
10101110,
500000000000000000000000000000000008000000000000,
10010010,
10010010,
10111010,
9,
000000000000000000090000000000000000000000800000,
0, //29
#GOGOSTART
10111020,
10111000,
1111,
7008,
10111020,
10111000,
1111,
3330, //37
10101110,
10101110,
30111010,
30111000,
10101110,
10101110,
30111030,
300000000000300000000000600000000000000008000000, //45
1112,
1112,
1112,
70000008,
1112,
1112,
1112,
#GOGOEND
40040000, //53
10022000,
10020000,
10022000,
10020000,
10022000,
10020000,
10022000,
40040020,
0, //62
#END

COURSE:Easy
LEVEL:2
BALLOON:6,14,4,6
SCOREINIT:880,10060
SCOREDIFF:528
#START
#BARLINEOFF
0,
0,
0,
#BARLINEON
2,
2,
2,
2,
1,
2,
1,
4, //11
0101,
0101,
0101,
70000008,
0101,
0101,
0101,
3, //19
1001,
1001,
1111,
500000000000000000000000000008000000000000000000,
1001,
1001,
1111,
9,
000000000000000000090000000000000000000000800000,
0, //29
#GOGOSTART
1011,
12,
1111,
70000800,
1011,
12,
1111,
600000000000000000000008000000000000000000000000, //37
1110,
1110,
32,
32,
1110,
1110,
32,
3333, //45
0101,
0101,
0101,
70000008,
0101,
0101,
0101,
#GOGOEND
3, //53
1,
2,
1,
2,
1,
2,
2,
4002,
0, //62
#END
