//TJADB Project
TITLE:Aragami
TITLEJA:Aragami
SUBTITLE:--xi
SUBTITLEJA:xi
BPM:98
WAVE:Aragami.ogg
OFFSET:-1.097
DEMOSTART:80.625

COURSE:Oni
LEVEL:10
BALLOON:16,6
SCOREINIT:1190
SCOREDIFF:0
#START
20222000,
20222000,
1111,
#BPMCHANGE 87.5
#SCROLL 1.0057142857142858
1000
#BPMCHANGE 78
#SCROLL 1
1000
#BPMCHANGE 68.3
#SCROLL 0.9956076134699854
1000
#BPMCHANGE 57
#SCROLL 1.0175438596491229
2000,
#BPMCHANGE 103.5
#SCROLL 0.9468599033816425
000
#BPMCHANGE 96
#SCROLL 1.0208333333333333
2,
#GOGOSTART
#MEASURE 3/4
#BPMCHANGE 196
#SCROLL 1
111222111222,
111222111210,
111222121121,
121211221110,
112211112211,
112211112212,
102211221111,
221221121110,
7,
000000080000,
#GOGOEND
200220,
202022,
102002,
122,
101200,
100020100022,
100000200000202020100000100000100200,
200000101010200000100000100000200200,
130112,
101020101021,
112112,
101120102020,
101040000022,
112121,
300000300000100200100200101010100000,
444,
110110,
122,
110110,
100020222022,
110112,
100111200111200200,
101110111010,
100000100100100000101010100100100100,
102010221222,
112210201022,
102210221222,
112212221212,
101122111121,
112121121210,
330303,
302211111111,
100122,
102220002000,
102120,
102000202222,
100022,
200000002022,
220020,
500000000000000000000000000000000008000000000000,
102100,
100020122020,
102000102220,
120100,
500000000000000000000000000000000008000000000000,
102220102210,
101210222020,
102220102010,
221022112010,
122030002010,
111210222210,
102222102122,
221010221122,
100000101010100000100000100200200200,
101222122022,
122210221222,
121212112121,
112210112210,
112210112212,
100000200200100000200200100020002000,
112211221212,
#MEASURE 6/4
100000007000080020002000,
#GOGOSTART
#MEASURE 3/4
111222111222,
111222111210,
111222121222,
121211221110,
112211112211,
112211112212,
102211221111,
221221121222,
100010221022,
122212212211,
221221212111,
112212111012,
100100100200100000201010100100100000,
100200100200100000202010100100100000,
111122112210,
102010200100100000102010200100100000,
#GOGOEND
330330,
3,
330330,
322,
330330,
3,
330330,
300000100111100100,
#GOGOSTART
111222111222,
112211112222,
111222111222,
122212221212,
111122111122,
112211221122,
100200100200100200100200102010201020,
100100100100100100100200100100101010,
#GOGOEND
#BPMCHANGE 192
#SCROLL 1.0208333333333333
1,
,
,
#BPMCHANGE 182.3
#SCROLL 1.0751508502468459
,
2,
#END

COURSE:Hard
LEVEL:8
BALLOON:12,4
SCOREDIFF:0
#START
2220,
2220,
1111,
#BPMCHANGE 87.5
#SCROLL 1.0057142857142858
1000
#BPMCHANGE 78
#SCROLL 1
1000
#BPMCHANGE 68.3
#SCROLL 0.9956076134699854
1000
#BPMCHANGE 57
#SCROLL 1.0175438596491229
2000,
#BPMCHANGE 103.5
#SCROLL 0.9468599033816425
000
#BPMCHANGE 96
#SCROLL 1.0208333333333333
2,
#GOGOSTART
#BPMCHANGE 196
#MEASURE 3/4
#SCROLL 1
101101,
101101,
101101,
101010111000,
101101,
101101,
101111,
101110111000,
7,
008,
#GOGOEND
202,
2,
1,
1,
12,
11,
102220,
221002,
110000,
102102,
102102,
111,
140,
112120,
330303,
444,
110110,
1,
110110,
102220,
110110,
102120,
111110,
101110101000,
101210,
102220101000,
101212,
102220102000,
111010111010,
121110,
330303,
3,
11,
102,
100120,
102,
1,
202,
202,
500000000000000000000000000008000000,
22,
22,
11,
11,
500000000000000000000000000008000000,
101101,
112,
101101,
101120,
203011,
111,
201011,
111,
203011,
101110,
101110,
111120,
101011,
221011,
221010,
221010,
#MEASURE 6/4
100070082020,
#GOGOSTART
#MEASURE 3/4
101101,
101101,
101101,
101010111000,
101101,
101101,
101111,
101110111000,
101210,
101212,
201022202000,
121210,
101000101110,
101000101110,
101000102220,
500000000000000000000000000008000000,
#GOGOEND
330330,
3,
330330,
302,
330330,
3,
330330,
3,
#GOGOSTART
111111,
111111,
112211,
112211,
111011101110,
111011101110,
111011101110,
111011101110,
#GOGOEND
#BPMCHANGE 192
#SCROLL 1.0208333333333333
1,
,
,
#BPMCHANGE 182.3
#SCROLL 1.0751508502468459
,
2,
#END

COURSE:Normal
LEVEL:7
BALLOON:9
SCOREDIFF:0
#START
2220,
2220,
1111,
#BPMCHANGE 87.5
#SCROLL 1.0057142857142858
1000
#BPMCHANGE 78
#SCROLL 1
1000
#BPMCHANGE 68.3
#SCROLL 0.9956076134699854
1000
#BPMCHANGE 57
#SCROLL 1.0175438596491229
2000,
#BPMCHANGE 103.5
#SCROLL 0.9468599033816425
000
#BPMCHANGE 96
#SCROLL 1.0208333333333333
2,
#GOGOSTART
#BPMCHANGE 196
#MEASURE 3/4
#SCROLL 1
11,
11,
11,
101110,
11,
11,
11,
101110,
7,
008,
#GOGOEND
2,
2,
,
1,
12,
1,
1,
1,
1,
12,
12,
101,
140,
122,
330303,
444,
11,
1,
11,
122,
11,
102220,
11,
500000000000000000000008000000000000,
111,
101110,
111,
101110,
111110,
111110,
330303,
3,
1,
1,
101,
1,
2,
2,
202,
500000000000000000000000000008000000,
1,
,
1,
,
500000000000000000000000000008000000,
11,
112,
11,
112,
230,
111,
210,
111,
230,
101110,
101,
111020,
210,
110,
102022,
201110,
#MEASURE 6/4
100022,
#GOGOSTART
#MEASURE 3/4
11,
11,
11,
101110,
11,
11,
11,
111110,
111,
101110,
111,
101110,
110110,
110110,
110220,
11,
#GOGOEND
33,
3,
33,
302,
33,
3,
33,
3,
#GOGOSTART
101110,
111110,
101110,
111110,
101111,
101111,
101212,
121212,
#GOGOEND
#BPMCHANGE 192
#SCROLL 1.0208333333333333
1,
,
,
#BPMCHANGE 182.3
#SCROLL 1.0751508502468459
,
2,
#END

COURSE:Easy
LEVEL:4
BALLOON:6
SCOREDIFF:0
#START
2,
2,
11,
#BPMCHANGE 87.5
#SCROLL 1.0057142857142858
1000
#BPMCHANGE 78
#SCROLL 1
0000
#BPMCHANGE 68.3
#SCROLL 0.9956076134699854
0000
#BPMCHANGE 57
#SCROLL 1.0175438596491229
0000,
#BPMCHANGE 103.5
#SCROLL 0.9468599033816425
000
#BPMCHANGE 96
#SCROLL 1.0208333333333333
0,
#GOGOSTART
#BPMCHANGE 196
#MEASURE 3/4
#SCROLL 1
11,
11,
11,
1110,
11,
11,
11,
1110,
7,
008,
#GOGOEND
2,
2,
,
,
1,
1,
,
,
2,
2,
2,
2,
1,
1,
6,
000000000000000008000000000000000000,
11,
1,
11,
1,
11,
12,
11,
500000000000000008000000000000000000,
101,
101,
101,
101,
111,
111,
33,
3,
1,
1,
1,
,
2,
2,
2,
,
2,
,
2,
,
,
1,
1,
1,
111,
130,
1,
1,
111,
130,
1,
1,
111,
110,
1,
1,
1,
#MEASURE 6/4
1,
#GOGOSTART
#MEASURE 3/4
11,
11,
11,
1110,
11,
11,
11,
1110,
12,
12,
12,
2220,
12,
12,
12,
11,
#GOGOEND
3,
,
3,
,
3,
,
3,
,
#GOGOSTART
111,
111,
111,
111,
5,
,
,
000000000000000000000000000000000008,
#GOGOEND
#BPMCHANGE 192
#SCROLL 1.0208333333333333
,
,
,
#BPMCHANGE 182.3
#SCROLL 1.0751508502468459
,
2,
#END
