//TJADB Project
TITLE:Irodoru♡Future
TITLEJA:Irodoru♡Future
SUBTITLE:--Kobayashi Nobuyoshi feat. Mirai Komachi
SUBTITLEJA:小林伸嘉(BNSI) feat. ミライ小町
BPM:194
WAVE:Irodoru Future.ogg
OFFSET:-1.31
DEMOSTART:59.299

COURSE:Oni
LEVEL:8
BALLOON:25,18,38
SCOREINIT:1170
#START
,
,
,
00011211,
01012112,
0020101120001000,
7,
0000000000000800,
2000200020112000,
1011102020102011,
2020201120102000,
1011101010222010,
1010102211221110,
2011101022101011,
#MEASURE 3/4
200200500000008000,
#MEASURE 4/4
1011102010222010,
0010101011112010,
1000100010112010,
1000202210101010,
1000101120102010,
#MEASURE 2/4
1222,
#MEASURE 4/4
1000100010112010,
1000202210101010,
0010222010111020,
#MEASURE 3/4
111020201111,
#MEASURE 4/4
1000100010112010,
2000202210102020,
1011102010112020,
1011102010112020,
#MEASURE 3/4
111222111020,
#MEASURE 4/4
1011102010111020,
#MEASURE 3/4
101110101110,
#MEASURE 4/4
600008,
100000000000100010001000200000100100000100000100,
2010102020002001,
2022121221120101,
011111,
100000000000100010001000200000100100000100000100,
2010102020102011,
00111222,
11122210,
300000000000100010001000200000100100000000200000,
101010100100200000100100,
20012011,
10102211,
0011102010221011,
1020111010201070,
,
00080010112010
#GOGOSTART
30,
0022101011201030,
0022101010001011,
1010201110102010,
2000201011201030,
0022101011202030,
0022101010001011,
1020101110201020,
1000201011201030,
0022101011201030,
0022101010001011,
1010201110102010,
2000201011201030,
0022101011202030,
0022101010001011,
1020101110201020,
1021102010211020,
1000200020112010,
#MEASURE 3/4
#GOGOEND
301110102020,
121012102000,
101110102010,
221022102000,
221022102011,
#MEASURE 4/4
1011100020202222,
#MEASURE 3/4
000111211,
#MEASURE 4/4
1011101020112020,
2211221011201120,
1112111212112020,
33322222,
02011122,
00022222,
02012112,
00011122,
0010001011102020,
0010002010111020,
3433,
40004010112010
#GOGOSTART
30,
0022101011201030,
0022101010001011,
1010201110102010,
2000201011201030,
0022101011202030,
0022101010001011,
1020101110201020,
1000201022101040,
0012101021201030,
0012101020001011,
1020201110202010,
2000201022101030,
0012101021202030,
0012101020001011,
1020101110201020,
1021102010211020,
1122102011221020,
1000200020112010,
#GOGOEND
3011101020112000,
1011101010222010,
1011101010100010,
#MEASURE 3/4
211103,
110123,
101114,
211302,
211320,
202241,
#MEASURE 4/4
300000000300000000300000100010002000100200100200,
#MEASURE 2/4
1,
#MEASURE 4/4
7,
,
0000000000080000,
,
,
#END

COURSE:Hard
LEVEL:4
BALLOON:18,11,12,11,18,11,28,30
SCOREINIT:2230
SCOREDIFF:
#START
,
,
,
00001011,
01002022,
02000010,
7,
0008,
20202120,
10102120,
20212000,
11011021,
10120020,
20112011,
#MEASURE 3/4
220,
#MEASURE 4/4
11011201,
01101020,
10101101,
10220111,
70000008,
#MEASURE 2/4
00,
#MEASURE 4/4
10101101,
10220111,
05000000,
#MEASURE 3/4
000008000000000000,
#MEASURE 4/4
10101101,
20220122,
1112,
1121,
#MEASURE 3/4
112110,
#MEASURE 4/4
11101110,
#MEASURE 3/4
101101,
#MEASURE 4/4
600008,
1220,
1122,
20022022,
000500000000000008000000,
1220,
1122,
00111222,
11122210,
300000500000000008000000,
100000500000000008000000,
20012010,
10102011,
01121011,
10111017,
,
,
0801121
#GOGOSTART
3,
02011213,
02011010,
1211,
20211213,
02011223,
02011010,
7,
08011213,
02011213,
02011010,
1211,
20211213,
02011223,
02011010,
7,
0008,
20202120,
#MEASURE 3/4
#GOGOEND
301110,
111,
101110,
222,
101110,
#MEASURE 4/4
1110,
#MEASURE 3/4
010,
#MEASURE 4/4
11212020,
11212020,
11211220,
33302022,
02002022,
00002022,
02002022,
00011122,
01011122,
01001010,
1211,
2001121
#GOGOSTART
3,
02011213,
02011010,
1211,
20211213,
01011223,
02011010,
7,
08011213,
02011213,
02011010,
1211,
20211213,
02011223,
02011010,
7,
,
0008,
20202120,
#GOGOEND
30112120,
11011012,
11121101,
#MEASURE 3/4
211101,
110121,
101112,
211102,
211110,
202211,
#MEASURE 4/4
500000000000000000000008,
#MEASURE 2/4
00,
#MEASURE 4/4
7,
,
0000000000080000,
#END

COURSE:Normal
LEVEL:4
BALLOON:12,8,9,8,12,8,19,20
SCOREINIT:4240
SCOREDIFF:
#START
,
,
,
00001001,
00002002,
0001,
7,
0008,
2220,
1,
2020,
1010,
10020000,
2020,
#MEASURE 3/4
220,
#MEASURE 4/4
10001001,
0010,
1100,
1100,
70000008,
#MEASURE 2/4
00,
#MEASURE 4/4
1100,
1100,
05000000,
#MEASURE 3/4
000008000000000000,
#MEASURE 4/4
1100,
2200,
1110,
2220,
#MEASURE 3/4
101,
#MEASURE 4/4
1101,
#MEASURE 3/4
100100,
#MEASURE 4/4
600000000000000000000008,
0020,
1010,
2022,
000500000000000008000000,
2010,
1120,
00100100,
10010010,
3010,
1011,
2020,
10002001,
0011,
10001007,
,
,
0800303
#GOGOSTART
3,
01003033,
01000010,
1211,
20003033,
01003044,
01000010,
7,
08003033,
01003033,
01000010,
1211,
20003033,
01003044,
01000010,
7,
0008,
200200500080,
#MEASURE 3/4
#GOGOEND
300,
100,
100,
200,
100,
#MEASURE 4/4
1,
#MEASURE 3/4
000,
#MEASURE 4/4
1122,
1122,
1112,
33300002,
00002002,
00000002,
00002002,
00001011,
01001022,
01001010,
1211,
2000303
#GOGOSTART
3,
01003033,
01000010,
1211,
20003033,
01003044,
01000010,
7,
08003033,
01003033,
01000010,
1211,
20003033,
01003044,
01000010,
7,
,
0008,
200200500080,
#GOGOEND
3,
1010,
20001001,
#MEASURE 3/4
000101,
000101,
000102,
000102,
000100,
220,
#MEASURE 4/4
500000000000000000000008,
#MEASURE 2/4
00,
#MEASURE 4/4
7,
,
0000000000080000,
,
,
#END

COURSE:Easy
LEVEL:3
BALLOON:9,6,7,6,9,6,15,16
SCOREINIT:7860
SCOREDIFF:
#START
,
,
,
00000001,
00000002,
,
7,
0008,
2220,
1,
2,
1010,
1,
2020,
#MEASURE 3/4
200,
#MEASURE 4/4
10000001,
0010,
1,
1,
70000008,
#MEASURE 2/4
00,
#MEASURE 4/4
1,
1,
05000000,
#MEASURE 3/4
000008000000000000,
#MEASURE 4/4
1,
2,
1010,
1020,
#MEASURE 3/4
100,
#MEASURE 4/4
1,
#MEASURE 3/4
100,
#MEASURE 4/4
600000000000000000000008,
,
1,
2020,
000500000000008000000000,
2,
1,
0100,
1,
3,
1010,
2,
10000001,
0010,
10001007,
,
,
0800300
#GOGOSTART
3,
00003003,
,
1010,
20003003,
00003004,
,
7,
08003003,
00003003,
,
1010,
20003003,
00003004,
,
7,
0008,
2220,
#MEASURE 3/4
#GOGOEND
300,
,
100,
,
100,
#MEASURE 4/4
0,
#MEASURE 3/4
000,
#MEASURE 4/4
1010,
1020,
1010,
30300002,
00000002,
00000002,
00000002,
00000002,
00001002,
0010,
1010,
1000300
#GOGOSTART
3,
00003003,
,
1010,
20003003,
00003004,
,
7,
08003003,
00003003,
,
1010,
20003003,
00003004,
,
7,
,
0008,
2220,
#GOGOEND
3,
1,
20000001,
#MEASURE 3/4
000001,
000001,
000002,
000002,
,
200,
#MEASURE 4/4
500000000000000000000008,
#MEASURE 2/4
00,
#MEASURE 4/4
7,
,
0000000000080000,
,
,
#END
