//TJADB Project
TITLE:Mixed Nuts -Cover Audio-
TITLEJA:ミックスナッツ
SUBTITLE:--SPY×FAMILY
SUBTITLEJA:カバー音源 TVアニメ『SPY×FAMILY』第1クールオープニング主題歌
BPM:150
WAVE:Mixed Nuts (Cover).ogg
OFFSET:-0.554
DEMOSTART:50.941 //Shinuchi:
10840/7220/4320/2270/1620

COURSE:Edit
LEVEL:9
BALLOON:5,6
SCOREINIT:550,1670
SCOREDIFF:140
#START
#SCROLL 1.5
30020202,
0022202000200020,
0022202020202020,
2222202220202220,
1020121121121121,
202010101010202010101010200100000200200100000000, //6
1022012220122210,
1021022210102012,
1021022210201220,
1021022010122120,
1021022210102220,
1012022210210210,
1021022210221222,
100100200200200000202020100000200100200200100200, //14
1020122210220120,
1020120211221220,
1020122210210220,
1020120211221220,
1022122210220120,
1022120212112220,
1022122210221220,
1022022022021220, //22
3000220100222112,
1022022120201012,
1000220200102211,
100000200200100100200100000400000400000000101010,
1000220200221220,
1022010200102022,
1020102210210120,
1022102210210120,
1021002012112122,
7080221
#GOGOSTART
3, //32
0020122010221222,
1020122010221122,
1020122010210120,
1020122010222111,
1020210402202122,
1020210300202022,
1022212011201222,
1022012270008002, //40
1020102210221222,
1020120210221222,
1020122010210122,
1020122010222111,
2020110400201120,
1020120300202012,
1020122010221222,
1022201011222211, //48
1020101210201012,
1022122210201222,
1022122210211222,
1020202210210210,
1020121121121121,
111122020121121120300000,
#GOGOEND
0,
0, //56
#END

COURSE:Oni
LEVEL:7
BALLOON:11,22,28
SCOREINIT:730,2390
SCOREDIFF:188
#START
11221122,
11112211,
12121221,
11700008,
1010220110220110,
600000000000000000000000000000000000000008000000, //6
3010111120201010,
1000100022112020,
1011102010002010,
1111201010002010,
1010201110001010,
1111101020002011,
11212021,
2211202010101000, //14
1010111120201010,
1000100022112020,
1011102010002010,
1111201010002010,
1010201110202010,
1111202020002010,
1022112000102010,
1022200011112020, //22
1000101200112210,
1000101200112210,
1000101200111110,
2011112010202010,
1020101200112210,
1020101200111110,
21122112,
1022112010111020,
7, //31
00008000111110
#GOGOSTART
30,
0010111120201010,
0010201011112010,
600000000000000000000000000000000008000000600000,
000000000000000000000000000008000000100100200000,
3010110300201110,
3010110100201011,
1020102211201111, //39
2020201011111030,
0010111120201010,
0010221120102010,
600000000000000000000000000000000008000000600000,
000000000000000000000000000008000000100100100100,
2010202010102211,
2010201110202020,
1010102020111120, //47
1011112020102010,
500000000000000000000000000000000000000008000000,
2010102211201020,
1111201020202010,
1111101020102010,
7,
00000830,
#GOGOEND
0,
0, //56
#END

COURSE:Hard
LEVEL:5
BALLOON:24,20,17,16,24
SCOREINIT:1070,4700
SCOREDIFF:305
#START
10101120,
10101120,
10202011,
10201120,
7,
00000800, //6
31122011,
10102022,
1102,
10011001,
10011011,
10112022,
10012001,
500000000000000000000000000000000000000008000000, //14
11122011,
10102022,
1102,
10011001,
10011221,
10022001,
7,
00081110,
1000101100002000,
1000101100002000,
1000101100001000,
20002220,
1000101100002000,
1000101100001000,
20222022,
10111001,
7, //31
0080111
#GOGOSTART
3,
01122011,
01201110,
6,
000000000000000000000000000008000000000000000000,
3000110100001010,
3000110100001010,
10170000, //39
00008013,
01122011,
01201110,
6,
000000000000000000000000000008000000000000000000,
11221122,
10110222,
01122110, //47
10012110,
500000000000000000000000000000000000000008000000,
01110112,
20012001,
10012110,
7,
00000830,
#GOGOEND
0,
0, //56
#END

COURSE:Normal
LEVEL:4
BALLOON:16,16,12,10,13
SCOREINIT:1300,7960
SCOREDIFF:525
#START
1111,
1110,
1111,
1110,
7,
00000800, //6
3110,
1122,
1100,
10011000,
10011000,
1120,
11,
500000000000000000000000000000000000000008000000, //14
1110,
1122,
1100,
10011000,
10011000,
10022000,
7,
00000800, //22
10110000,
10110000,
10110000,
2022,
10110000,
10110000,
2022,
10111000,
7, //31
0080000
#GOGOSTART
3,
00101001,
00101110,
6,
000000000000000000000000000008000000000000000000,
3101,
30100011,
10070000, //39
00008003,
00101001,
00101110,
6,
000000000000000000000000000008000000000000000000,
1110,
1102,
2011, //47
10001110,
500000000000000000000000000000000000000008000000,
1101,
12,
10001110,
7,
00080030,
#GOGOEND
0,
0, //56
#END

COURSE:Easy
LEVEL:2
BALLOON:13,13,9,8,11
SCOREINIT:1130,12220
SCOREDIFF:633
#START
1,
11,
1,
2,
7,
00000800, //6
31,
11,
2,
11,
1011,
11,
11,
500000000000000000000000000008000000000000000000, //14
11,
11,
2,
11,
1011,
12,
7,
00000800, //22
1100,
1100,
1100,
12,
1100,
1100,
1011,
11,
7, //31
0080000
#GOGOSTART
3,
0110,
0111,
6,
000000000000000000000000000008000000000000000000,
3001,
3001,
10070000, //39
00008003,
0110,
0111,
6,
000000000000000000000000000008000000000000000000,
11,
1,
21, //47
1011,
500000000000000000000000000008000000000000000000,
1001,
12,
1011,
7,
00080030,
#GOGOEND
0,
0, //56
#END
