//TJADB Project
TITLE:Densha de Densha de OPA! OPA! OPA! -GMT Mashup-
TITLEJA:電車で電車で OPA!OPA!OPA! -GMT mashup-
SUBTITLE:--Yuuji Masabuchi (BNSI)/Densha de GO! & Fantasy Zone
SUBTITLEJA:Yuji Masubuchi(BNSI)
BPM:134
WAVE:Densha de Densha de OPA! OPA! OPA! -GMT Mashup-.ogg
OFFSET:-2.005
DEMOSTART:7.378

COURSE:Oni
LEVEL:8
BALLOON:16,8
SCOREINIT:480
SCOREDIFF:120
#START
1001001120020011,
1001021120210211,
1011001011001011,
1011102220222011,
1011102220222011,
1011102220222011,
200100200100200100200111,
1010401022020220,
1001102010011020,
1022102010102101,
1001102010011020,
1010202021011122,
1022201010222010,
2022101020102101,
11221122,
2020101211010110,
121121121121,
121121121121,
121121121121,
1221010122102100,
1001102010011020,
1022102010102101,
1001102010011020,
1010202021011122,
1022201010222010,
2022101020102101,
11221122,
2020101211010110,
10200211,
00200211,
00200211,
00200211,
1122,
12020211,
2020100202021000,
2020100202021010,
2020100202021000,
2020100202021010,
1122,
1001102220102222,//40
#BPMCHANGE 268
#SCROLL 0.7
#GOGOSTART
11211121,
11211221,
11211121,
11211221,
21212121,
21112040,
11211121,
21121111,
10030000,
,
211111100211,
101010100000200200200200,//52
#GOGOEND
#BPMCHANGE 134
#SCROLL 1
1021120112012210,
3333,//54
#GOGOSTART
1020120212021021,
1020120210221201,
0102102110221201,
0102102110212100,
1020120212021021,
1020120210221202,
1101110111011011,
7008,
1020120212021021,
1020120210221201,
0102102110221201,
0102102110212100,
1020120212021021,
1020120210221202,
1101110111011011,
700000000800101010100000,//70
#GOGOEND
1021102110211021,
1021102110211021,
1021102110211020,
400100400100400100400111,
11600000,
000000000000000000000008000000000000200200000400,
#END

COURSE:Hard
LEVEL:7
BALLOON:14,10
#START
1001000020020010,
1001010020200200,
1011001011001011,
1011102020222010,
1011102020222010,
1011102020222010,
4444,
11200000,
1001100010011000,
1011102010102100,
1001100010011000,
1010202011011000,
12021011,
200000200200100000100000500000000000008000000000,
11201120,
1010101122020220,
111111111100,
111111111200,
111111111100,
1001010020200200,
1001100010011000,
1011102010102100,
1001100010011000,
1010202011011000,
12021011,
200000200200100000100000500000000000008000000000,
11201120,
1010101122020220,
10200210,
00200210,
00200210,
00200210,
1112,
12121210,
1000200202022000,
1000200202022000,
1000200202022000,
1000200202022000,
1112,
1001102010101000,//40
#BPMCHANGE 268
#SCROLL 0.7
#GOGOSTART
10101110,
11101000,
10101110,
11101000,
10101110,
1122,
10101110,
20220000,
30030000,
,
7,
0008,//52
#GOGOEND
#BPMCHANGE 134
#SCROLL 1
1001001010002210,
1133,//54
#GOGOSTART
1001102010011020,
1001102010102200,
1001201010012010,
1001201010102200,
1001102010011020,
1001102010102205,
000000000000000000000000000000000000000008000000,
7008,
1001102010011020,
1001102010102200,
1001201010012010,
1001201010102200,
1001102010011020,
1001102010102205,
000000000000000000000000000000000000000000000008,
000000111100,//70
#GOGOEND
1011102020222010,
1011102020222010,
1011102020222010,
4444,
11600000,
000000000000000000000008000000000000200200000200,
,
,
#END

COURSE:Normal
LEVEL:6
BALLOON:9,8
#START
1001000020020000,
1001000020020000,
10010010,
11102220,
11102220,
11102220,
3333,
0400,
1001100010000000,
1110,
1001100010000000,
2220,
02022000,
20222000,
1001100010000000,
1010101100000000,
1111,
10101110,
1111,
10001110,
1001100010000000,
1110,
1001100010000000,
2220,
02022000,
20222000,
1001100010000000,
1010101100000000,
1202,
0202,
0202,
0202,
1110,
1110,
1202,
0202,
0202,
0202,
1110,
1130,//40
#BPMCHANGE 268
#SCROLL 0.7
#GOGOSTART
1111,
1110,
1111,
1110,
1111,
1110,
1111,
1110,
30030000,
,
7,
0008,//52
#GOGOEND
#BPMCHANGE 134
#SCROLL 1
1212,
1110,//54
#GOGOSTART
1111,
1001100010000000,
1212,
10101110,
1111,
1001100010000000,
500000000000000000000000000000000000000008000000,
7008,
1111,
1001100010000000,
1212,
10101110,
1111,
1001100010000000,
500000000000000000000000000000000000000000000008,
,//70
#GOGOEND
11102220,
11102220,
11102220,
3333,
0600,
000000000000000000000000000000000008000000000000,
,
,
#END

COURSE:Easy
LEVEL:4
BALLOON:5,6,7,8
#START
,
,
30030030,
1110,
1110,
1110,
3333,
0300,
11,
1110,
11,
1110,
22,
2220,
1110,
500000000000000000000000000008000000000000000000,
12,
1110,
12,
13,
11,
1110,
11,
1110,
22,
2220,
1110,
500000000000000000000000000008000000000000000000,
1001,
1001,
1001,
1001,
12,
1110,
1001,
1001,
1001,
1001,
12,
1110,//40
#BPMCHANGE 268
#SCROLL 0.6
#GOGOSTART
7,
08,
7,
08,
7,
08,
7,
08,
3,
,
5,
000000000000000000000000000000000000000000000008,//52
#GOGOEND
#BPMCHANGE 134
#SCROLL 1
,
3330,//54
#GOGOSTART
1111,
10001110,
11,
2220,
1111,
10001110,
500000000000000000000000000000000000000000000008,
,
1111,
10001110,
11,
2220,
1111,
10001110,
500000000000000000000000000000000000000000000008,
,//70
#GOGOEND
1212,
1212,
1212,
3333,
0600,
000000000000000000000000000000000008000000000000,
,
,
#END
