//TJADB Project
TITLE:SUPERNOVA
TITLEJA:SUPERNOVA
SUBTITLE:--USAO
SUBTITLEJA:USAO
BPM:212
WAVE:SUPERNOVA.ogg
OFFSET:-0.129
DEMOSTART:54.751

COURSE:Edit
LEVEL:10
BALLOON:3,3,3,3,3,3,3,39,3,3
SCOREINIT:910
SCOREDIFF:0
#START
#BARLINEOFF
#MEASURE 1/4
580000,
#BARLINEON
#MEASURE 4/4
40040040,
,
40040040,
0000000000000011,
2000102000102011,
1010202210001011,
20120120,
3004,
1110211011102120,
1120212011201120,
2120211021102120,
100000100000100110200000,
1120112010211010,
1120112011201120,
2221221221212121,
00000078,
#GOGOSTART
1011201120112121,
1011201120112120,
1111201111201111,
#GOGOEND
21211078,
#GOGOSTART
1022102010122010,
1220122012021011,
1110122011012011,
#GOGOEND
12121078,
#GOGOSTART
100000202020200000200000100000200000100000100200,
1022120210202210,
100100200000100100200000100100200100100200101010,
#GOGOEND
1000101120007080,
#GOGOSTART
1211101021012010,
1121101021012210,
1122102120221222,
111111110400,
#GOGOEND
#MEASURE 8/4
#SCROLL 0.75
100200400100200100400200
100200400100220100400200,
1020401020104020
1220401122104000,
100200400100200100400200
100200400100220100400200,
100000200000400000100000200000100000400000200000
100200200200200020002000200000200000400000000000,
#SCROLL 0.5
1000001110010011
1111100010111110,
1000001110010011
2111200020112000,
#MEASURE 4/4
#SCROLL 0.51
1
#SCROLL 0.53
1
#SCROLL 0.54
1
#SCROLL 0.56
1
#SCROLL 0.58
1
#SCROLL 0.59
1
#SCROLL 0.61
1
#SCROLL 0.63
1
#SCROLL 0.64
1
#SCROLL 0.66
1
#SCROLL 0.68
1
#SCROLL 0.7
1
#SCROLL 0.72
1
#SCROLL 0.74
1
#SCROLL 0.76
1
#SCROLL 0.79
1,
#SCROLL 0.81
1
#SCROLL 0.83
1
#SCROLL 0.86
1
#SCROLL 0.88
1
#SCROLL 0.91
1
#SCROLL 0.93
1
#SCROLL 0.96
1
#SCROLL 0.99
1
#SCROLL 1.01
1
#SCROLL 1.04
1
#SCROLL 1.07
1
#SCROLL 1.1
1
#SCROLL 1.14
1
#SCROLL 1.17
1
#SCROLL 1.2
1
#SCROLL 1.24
1,
#SCROLL 1.27
1
#SCROLL 1.31
1
#SCROLL 1.35
1
#SCROLL 1.38
1
#SCROLL 1.42
1
#SCROLL 1.47
1
#SCROLL 1.51
1
#SCROLL 1.55
1
#SCROLL 1.59
1
#SCROLL 1.64
1
#SCROLL 1.69
1
#SCROLL 1.74
1
#SCROLL 1.79
1
#SCROLL 1.84
1
#SCROLL 1.89
1
#SCROLL 1.94
1,
#SCROLL 2
30303078,
#SCROLL 1
#GOGOSTART
1011101021012020,
100000200100100000200000100000201010100000201010,
100000100200100000200000100000100020100000200000,
#GOGOEND
22112078,
#GOGOSTART
1022102110221020,
100000200200100100200000100000202020100000102020,
1010202212211021,
#GOGOEND
1000111120007080,
#GOGOSTART
1022122212021020,
1012112012202121,
1011211120120111,
222222300000,
#GOGOEND
#MEASURE 8/4
70000008,
#SCROLL 0.5
10002002
22102012,
100000000000200000000200
100200100000200000580000,
10002002
22102012,
1000000020000011
2000101020102000,
30202010
21212012,
10212121
20121210,
10202011
21212010,
20120121
22012030,
#SCROLL 0.75
2220202210002220
2020202210202020,
2220202010002020
2220202012204000,
2220102220001220
2020102220201020,
2220102020001020
2220102012201020,
1110201110002110
1010201110102010,
1110201010002010
1110201011102000,
1110201020112020
1110201020112022,
100100100100200000200200100100100100200000200200
100000000000202000200000202000200000300000000000,
#MEASURE 4/4
#SCROLL 0.51
1
#SCROLL 0.53
1
#SCROLL 0.54
1
#SCROLL 0.56
1
#SCROLL 0.58
1
#SCROLL 0.59
1
#SCROLL 0.61
1
#SCROLL 0.63
1
#SCROLL 0.64
1
#SCROLL 0.66
1
#SCROLL 0.68
1
#SCROLL 0.7
1
#SCROLL 0.72
1
#SCROLL 0.74
1
#SCROLL 0.76
1
#SCROLL 0.79
1,
#SCROLL 0.81
1
#SCROLL 0.83
1
#SCROLL 0.86
1
#SCROLL 0.88
1
#SCROLL 0.91
1
#SCROLL 0.93
1
#SCROLL 0.96
1
#SCROLL 0.99
1
#SCROLL 1.01
1
#SCROLL 1.04
1
#SCROLL 1.07
1
#SCROLL 1.1
1
#SCROLL 1.14
1
#SCROLL 1.17
1
#SCROLL 1.2
1
#SCROLL 1.24
1,
#SCROLL 1.27
1
#SCROLL 1.31
1
#SCROLL 1.35
1
#SCROLL 1.38
1
#SCROLL 1.42
1
#SCROLL 1.47
1
#SCROLL 1.51
1
#SCROLL 1.55
1
#SCROLL 1.59
1
#SCROLL 1.64
1
#SCROLL 1.69
1
#SCROLL 1.74
1
#SCROLL 1.79
1
#SCROLL 1.84
1
#SCROLL 1.89
1
#SCROLL 1.94
1,
#SCROLL 2
300000300000300110400000,
3000300030003033,
30303444,
3030303033333333,
40304078,
#SCROLL 1
#GOGOSTART
1012102011201210,
1220122011222011,
2110211120112210,
#GOGOEND
21040478,
#GOGOSTART
1121201111211120,
1112111012021022,
100000202020100000200000100000100100101010200000,
100100200200200010001000200010001000200200200200,
100000100200100000200000100000100020100000200100,
100000200200100200100100200000200000102020200000,
1222121212021120,
2212102212104000,
#GOGOEND
12412142,
100200400100220100400200,
12412142,
100200400100220100400000,
#GOGOSTART
300010100200100220101020,
100000200000100200100000100000202000100200100000,
100000202000100010002000100000202000100100100100,
100200200200200020002000200000200000202020200200,
#GOGOEND
,
#END

COURSE:Oni
LEVEL:10
BALLOON:29,2
SCOREINIT:1070
SCOREDIFF:0
#START
#BARLINEOFF
#MEASURE 1/4
,
#BARLINEON
#MEASURE 4/4
30030030,
,
30030030,
,
30030030,
,
30030030,
3004,
1020102011201020,
1020102011221010,
1020102011201020,
00000140,
1020102010211010,
1022102010211020,
1111111122222222,
1004,
#GOGOSTART
1020102010201011,
1020102011202020,
1120102010201012,
#GOGOEND
1114,
#GOGOSTART
1011102010201020,
1022102011211020,
1012102012201020,
#GOGOEND
1120200010004000,
#GOGOSTART
1020102010201011,
1020102011202020,
1120102010201012,
#GOGOEND
1000101120004000,
#GOGOSTART
1011102010201020,
1022102011201011,
1022102211112222,
100200200200200020002000000000000000400000000000,
#GOGOEND
1000222000102220,
1000222000102220,
1000222000102220,
1000222010104000,
1000222000102220,
1000222000102220,
1000222000102220,
500000000000000000000008000000000000400000000000,
1000001110010011,
1111100010111110,
1000001110010011,
1111100010112000,
1110112011101120,
1110112011101120,
1122112211221122,
100000000000300000000000600008000000400000000000,
#SCROLL 1
#GOGOSTART
1011101010001000,
100100100100100111100111,
1010100010111010,
#GOGOEND
22122030,
#GOGOSTART
1011102010201020,
100200100200100111100111,
1020102010111010,
#GOGOEND
222200200000100000400000,
#GOGOSTART
1110221011102220,
1110222011212120,
1111221121121121,
500000000000000000000000000000000008000000000000,
#GOGOEND
#MEASURE 8/4
70000008,
#MEASURE 4/4
10002001,
02102002,
10002001,
000200100000200000580000,
10002001,
02102002,
10002001,
20102140,
10200120,
10202122,
10200120,
10202120,
10200120,
10202122,
10200120,
11012000,
2220202020002220,
2020202210202020,
2220202020002220,
22222030,
2220102020002220,
2020102220202020,
2000122020002000,
2000122020202020,
1220202010002220,
1020202210202020,
1220202010002220,
12221040,
1020222010201020,
1020222010201012,
1020101210201212,
1004,
1110112011101120,
1110112011101120,
1122112211221122,
00000140,
3000300030003011,
10303344,
3030303011111111,
2000100020112000,
#GOGOSTART
100000100100100000100000101010100000101010100000,
100000100000100000100000101010100000100000100100,
100100111100111100100100,
#GOGOEND
2020002000212000,
#GOGOSTART
300000100200100000200000101010100000100000200000,
100000200000100000200000101010100000100200100100,
100200100222100200100200,
111100100100200000111100,
300000100200100000200000101010100000100000200000,
100000200000100000200000101010100000100000100100,
111100100222100200200200,
100000100100100000000000101010100000300000000000,
#GOGOEND
2220102020001220,
2020102220201020,
2000122020001000,
2000122020104000,
#GOGOSTART
300010100200100010102020,
1020112010201120,
100000001000100020002000100100100100200200200200,
100200200200200020002000200000200000700000800000,
#GOGOEND
,
#END

COURSE:Hard
LEVEL:8
BALLOON:8,30,19,30,5,8
SCOREINIT:1980
SCOREDIFF:0
#START
#BARLINEOFF
#MEASURE 1/4
,
#BARLINEON
#MEASURE 4/4
30030030,
,
30030030,
,
30030030,
,
30030030,
3,
10101011,
1000100010111010,
10101011,
00000140,
1000100010111010,
1111,
500000000000000000000000000000000000000000000008,
0004,
#GOGOSTART
1000100010001011,
10101222,
10101011,
#GOGOEND
1114,
#GOGOSTART
1011100010001000,
1000100011102020,
11101010,
#GOGOEND
1004,
#GOGOSTART
1000100010001011,
10101222,
10101011,
#GOGOEND
1044,
#GOGOSTART
1011100010001000,
1000100011102020,
1000101110101000,
7008,
#GOGOEND
10200222,
10200222,
10200222,
500000000000000000000008000000100000400000000000,
10200222,
10200222,
10200222,
500000000000000000000008000000000000000000000000,
1000001110010010,
11100000,
1000001110010010,
11101040,
9,
,
,
8,
#SCROLL 1
#GOGOSTART
1011100010001000,
1000100010111010,
10101111,
#GOGOEND
2223,
#GOGOSTART
1011100010001000,
1000100010111010,
1000100010111010,
#GOGOEND
2214,
#GOGOSTART
10211020,
1000200011102000,
1010200011102020,
500000000000000000000000000000000008000000000000,
#GOGOEND
#MEASURE 8/4
70000008,
#MEASURE 4/4
12,
0120,
12,
0120,
12,
0120,
12,
2224,
10200120,
10202120,
10200120,
10202120,
10200120,
10202120,
10200120,
11012000,
22222022,
22200000,
22222022,
22222000,
22222022,
22200000,
20222020,
20222220,
12222022,
22200000,
12222022,
22222000,
10222020,
10222220,
10221020,
3,
9,
,
,
8,
30303033,
30303333,
600000000000000000000000000000000000000000000008,
,
#GOGOSTART
1011101010001000,
1010101010001011,
11101011,
#GOGOEND
7008,
#GOGOSTART
11201020,
11221022,
10221122,
10222020,
11201020,
11221022,
10221122,
1011100030004000,
#GOGOEND
12222022,
22200020,
20222020,
20222210,
#GOGOSTART
30221020,
10221122,
1000100011102020,
70000008,
#GOGOEND
,
#END

COURSE:Normal
LEVEL:7
BALLOON:5,18,11,18,5,6
SCOREINIT:2440
SCOREDIFF:0
#START
#BARLINEOFF
#MEASURE 1/4
,
#BARLINEON
#MEASURE 4/4
30030030,
,
30030030,
,
30030030,
,
30030030,
3,
10101011,
10101110,
10101011,
0004,
10101111,
1111,
500000000000000000000000000000000000000000000008,
0004,
#GOGOSTART
10101011,
10101111,
10101011,
#GOGOEND
1114,
#GOGOSTART
11101010,
10101111,
1111,
#GOGOEND
1004,
#GOGOSTART
10101011,
10101111,
10101011,
#GOGOEND
1044,
#GOGOSTART
11101010,
10101111,
10111010,
7008,
#GOGOEND
10200220,
10200220,
10200220,
500000000000000000000008000000000000400000000000,
10200220,
10200220,
10200220,
500000000000000000000008000000000000000000000000,
10011000,
11100000,
10011000,
11101040,
9,
,
,
8,
#SCROLL 1
#GOGOSTART
11101010,
10101111,
10101011,
#GOGOEND
0004,
#GOGOSTART
11101010,
10101111,
10101111,
#GOGOEND
1114,
#GOGOSTART
1212,
1212,
11201120,
500000000000000000000000000000000008000000000000,
#GOGOEND
#MEASURE 8/4
70000008,
#MEASURE 4/4
12,
02,
12,
02,
12,
0120,
12,
2220,
1202,
1220,
1202,
1220,
1202,
1220,
1202,
1,
20222020,
22200000,
20222020,
22202000,
20222020,
22200000,
20222020,
20222000,
10222020,
22200000,
10222020,
22202000,
10222020,
10222020,
10221020,
3,
9,
,
,
8,
30303033,
30303330,
600000000000000000000000000000000000000000000008,
,
#GOGOSTART
10111010,
11111011,
11101011,
#GOGOEND
7008,
#GOGOSTART
11201020,
1212,
10221020,
10222000,
11201020,
1212,
10221020,
33303040,
#GOGOEND
10222020,
22200020,
20222020,
20222020,
#GOGOSTART
30221020,
10221020,
10101111,
70000008,
#GOGOEND
,
#END

COURSE:Easy
LEVEL:5
BALLOON:4,15,9,15,4,5
SCOREINIT:3780
SCOREDIFF:0
#START
#BARLINEOFF
#MEASURE 1/4
,
#BARLINEON
#MEASURE 4/4
30030030,
,
30030030,
,
30030030,
,
30030030,
,
1110,
1110,
1111,
0003,
1110,
1110,
500000000000000000000000000000000000000000000008,
,
#GOGOSTART
1110,
1110,
1111,
#GOGOEND
1003,
#GOGOSTART
1110,
1110,
1111,
#GOGOEND
1004,
#GOGOSTART
1110,
1110,
1111,
#GOGOEND
1033,
#GOGOSTART
1110,
1110,
1111,
7008,
#GOGOEND
1202,
0202,
0202,
500000000000000000000008000000000000000000000000,
1202,
0202,
0202,
500000000000000000000008000000000000000000000000,
11,
1100,
11,
1100,
9,
,
,
8,
#SCROLL 1
#GOGOSTART
1110,
1110,
1111,
#GOGOEND
0004,
#GOGOSTART
1110,
1110,
1111,
#GOGOEND
1,
#GOGOSTART
1202,
1202,
1212,
3,
#GOGOEND
#MEASURE 8/4
70000008,
#MEASURE 4/4
12,
02,
12,
02,
12,
02,
12,
1,
1202,
1200,
1202,
1200,
1202,
1200,
1202,
1,
2202,
2,
2202,
2,
2202,
2,
2202,
2,
1202,
2200,
1202,
2200,
1202,
1202,
1212,
3,
9,
,
,
8,
3330,
3330,
600000000000000000000000000000000000000000000008,
,
#GOGOSTART
1111,
1110,
1111,
#GOGOEND
7008,
#GOGOSTART
1210,
1210,
1212,
1210,
1210,
1210,
1212,
3330,
#GOGOEND
1202,
0202,
0202,
0210,
#GOGOSTART
1212,
1212,
1111,
70000008,
#GOGOEND
,
#END
