//TJADB Project
TITLE:Kyourandotou
TITLEJA:狂瀾怒濤
SUBTITLE:--xi
SUBTITLEJA:xi
BPM:140
WAVE:Kyourandotou.ogg
OFFSET:-0.954
DEMOSTART:101.448

COURSE:Edit
LEVEL:10
BALLOON:6,5,38
SCOREINIT:890
SCOREDIFF:0
#START
2002,
#MEASURE 3/4
102,
#MEASURE 4/4
12,
#BPMCHANGE 280
#BARLINEOFF
00001112,
#BARLINEON
101020100100101020100200,
#GOGOSTART
1001,
12,
#MEASURE 6/4
100100000100101010,
#MEASURE 4/4
20001022,
112222111122,
500000000000000000000000000000000000000008000000,
2020101020201011,
1000101010101120,
1000101022111000,
1000101010101120,
1000101011221000,
1000101010101120,
1000101022112000,
2210102010221010,
2222101022101020,
1010201010201110,
2010102022102210,
1010201010201110,
2010102011221120,
2010201110201110,
2010201022112210,
2210102010221010,
2222101022102220,
#GOGOEND
1122112211203000,
1000101010101120,
1010101022111110,
1000101010101120,
1010101011221120,
1000101010101120,
1010101022112210,
2210102010221010,
2222101022101020,
1010101020102110,
1010111022111110,
1010101020102110,
1010111011221110,
1010221010111120,
1010221022112210,
300200222200,
#SCROLL 0.87
222200222200,
#SCROLL 0.75
222200222200,
#SCROLL 0.63
200200200200200020002000,
#SCROLL 0.5
100000100100100000000000200000200000100010002000,
100000100100100000000000200000001000000020000000,
200000001000000020000000100000000000100000100100,
1000020000100000,
#SCROLL 0.53
#BPMCHANGE 260
100000100000
#SCROLL 0.58
#BPMCHANGE 240
100010001000
#SCROLL 0.63
#BPMCHANGE 220.01
100100100100
#SCROLL 1.4
#BPMCHANGE 100
100000001000,
#BPMCHANGE 280
#SCROLL 0.63
10202022,
#SCROLL 0.75
1010202010111010,
#SCROLL 0.87
1010202010102022,
#SCROLL 1
2022221022111122,
1000001110001000,
1020100022211020,
1110100020201020,
0000100011112010,
100000100100200000000000100000000000100010002000,
100020102000100200201010,
1000100020221111,
1000111220102211,
1020100022211022,
112211202020,
0000300000001012,
00700008,
1011201010201020,
1011201020102010,
1010200011112011,
100000000000100100200200100000200000100010001000,
1011202010201120,
1011202020102210,
1010200011222011,
1000221122102020,
3,
22,
#MEASURE 6/4
102,
#MEASURE 4/4
3,
5,
000000000000000000000000000000000000000000000008,
000000000000000000000000100100100100100010001000,
3,
22,
100000000111,
#MEASURE 2/4
111,
#MEASURE 4/4
3,
5,
000000000000000000000000000000000000000000000008,
,
200000222102,
222202202222,
202100210021,
021021021001,
100100101101,
200101101222,
202102100101,
101101202000,
1010201120201010,
200000100100200000200000100010001000200020002000,
1010201120201010,
200000100100200000200000100010001000200020002000,
22122122,
1020201020222020,
25,
#BARLINEOFF
,
,
000000000000000000000008000000000000200000000000,
#MEASURE 5/4
#BPMCHANGE 300
#SCROLL 0.8
02002020002020001000,
#SCROLL 0.7
2022022010,
#SCROLL 0.6
20002020002020101111,
#BARLINEON
#SCROLL 1
#BPMCHANGE 302.03
22221122
#SCROLL 1.5
40,
#GOGOSTART
#SCROLL 1
#BPMCHANGE 300
1021021120,
100000200100000200101010202020,
100000200100000200100200101020,
#MEASURE 6/4
100000100000200000200000100000200000100010002000200010001000100100100100,
#MEASURE 5/4
1021021120,
100000200100000200101010200000,
100000200100000200100000201010,
10102020101020222000,
100000000000200200100000100000200000200020002000100100100100,
#GOGOEND
#MEASURE 4/4
100000000000200000200000100010001000200200200200,
111700000800,
#GOGOSTART
1000111110101020,
1010101022112211,
1000111110101020,
1111101011221111,
1000111110101020,
1010101022112210,
2210112210221010,
2222101022101120,
1010111110101120,
2011102022111110,
1010111110101120,
2210221011221120,
1011111011111120,
1122112011201120,
1111221120112020,
1111111111111111,
5,
000000000000000000000000000000000000000000000008,
#GOGOEND
02,
22,
#BPMCHANGE 289.26
2
#BPMCHANGE 269.34
0,
#BPMCHANGE 235.68
2,
#BPMCHANGE 140
220000000000000000200000,
#MEASURE 3/4
#BPMCHANGE 142.35
#SCROLL 0.98
220000000000200000,
#BPMCHANGE 140
#SCROLL 1
#MEASURE 2/4
1,
#MEASURE 4/4
7,
#BPMCHANGE 120.9
000000000000
#BPMCHANGE 100.83
000000000000
#BPMCHANGE 76.7
000000008000
#BPMCHANGE 85.78
000000000022,
#MEASURE 4/4
2,
,
,
#END

COURSE:Oni
LEVEL:9
BALLOON:12,14,14,6,4,5,45
SCOREINIT:1490
SCOREDIFF:0
#START
2002,
#MEASURE 3/4
202,
#MEASURE 4/4
22,
#BPMCHANGE 280
#BARLINEOFF
07,
#BARLINEON
00000008,
#GOGOSTART
1002,
11,
#MEASURE 6/4
100100000100101010,
#MEASURE 4/4
25,
,
000000000000000000000000000000000008000000000000,
22112211,
10111110,
10112210,
10111110,
10112212,
10111110,
10112210,
10111111,
22112211,
10101101,
10110110,
10101101,
10110110,
10201201,
20121120,
7,
0008,
#GOGOEND
2223,
10111010,
12112210,
10111010,
12112120,
10111010,
12112121,
22112211,
22112210,
10111110,
10112210,
10111110,
10112120,
10112211,
11221122,
3,
#SCROLL 0.87
2,
#SCROLL 0.75
22,
#SCROLL 0.63
2,
#SCROLL 0.5
11002220,
100100000000200010002000,
200010002000100000100100,
0000020000100000,
#SCROLL 0.53
#BPMCHANGE 260
700
#SCROLL 0.58
#BPMCHANGE 240
000
#SCROLL 0.63
#BPMCHANGE 220.01
000
#SCROLL 1.4
#BPMCHANGE 100
008,
#BPMCHANGE 280
#SCROLL 0.63
10202022,
#SCROLL 0.75
11221111,
#SCROLL 0.87
11211212,
#SCROLL 1
22212220,
10010010,
101010100000200200100200,
11102212,
00101121,
111200100112,
100020002000100100102010,
10102011,
10220021,
10102210,
100200202020,
00300011,
00700008,
11011212,
11011212,
11201110,
10111120,
11201212,
11202121,
11202220,
10222120,
3,
02,
#MEASURE 6/4
102,
#MEASURE 4/4
3,
5,
000000000000000000000000000000000000000000000008,
,
3,
02,
1,
#MEASURE 2/4
111,
#MEASURE 4/4
3,
5,
000000000000000000000000000000000000000000000008,
,
2,
22,
000100010001,
001001001001,
100100001000,
200001100200,
002000100001,
100100202000,
11022011,
02201020,
11022011,
02201010,
22022022,
02202222,
25,
#BARLINEOFF
,
,
000000000000000000000008000000000000000000000000,
#MEASURE 5/4
#BPMCHANGE 300
#SCROLL 0.8
02002020002020001000,
#SCROLL 0.7
2022022010,
#SCROLL 0.6
2022022010,
#BARLINEON
#SCROLL 1
#BPMCHANGE 302.03
22221122
#SCROLL 1.5
40,
#GOGOSTART
#SCROLL 1
#BPMCHANGE 300
1021021120,
100000200100000200101010200000,
100000200100000200100200101010,
#MEASURE 6/4
100100200200100100101010700000000800,
#MEASURE 5/4
1021021120,
100000200100000200101010200000,
1021021020,
1122112220,
100000200100100200200100101010,
#GOGOEND
#MEASURE 4/4
10222022,
1708,
#GOGOSTART
10111110,
10112210,
10111110,
10112212,
10111110,
10112210,
10111111,
22112211,
10111110,
10112210,
10111110,
10112220,
10111110,
21112122,
11112122,
11111111,
5,
000000000000000000000000000000000000000000000008,
#GOGOEND
,
,
#BPMCHANGE 289.26
0
#BPMCHANGE 269.34
0,
#BPMCHANGE 235.68
,
#BPMCHANGE 140
2002,
#MEASURE 3/4
#BPMCHANGE 142.35
#SCROLL 0.98
202,
#BPMCHANGE 140
#SCROLL 1
#MEASURE 2/4
1,
#MEASURE 4/4
7,
#BPMCHANGE 120.9
000000000000
#BPMCHANGE 100.83
000000000000
#BPMCHANGE 76.7
000000000000
#BPMCHANGE 85.78
000000000008,
#MEASURE 4/4
,
,
,
#END

COURSE:Hard
LEVEL:8
BALLOON:9,10,10,5,6,3,4,35
SCOREINIT:2200
SCOREDIFF:0
#START
2002,
#MEASURE 3/4
202,
#MEASURE 4/4
22,
#BPMCHANGE 280
#BARLINEOFF
07,
#BARLINEON
00000008,
#GOGOSTART
1001,
11,
#MEASURE 6/4
100100000100101010,
#MEASURE 4/4
25,
,
000000000000000000000000000000000008000000000000,
22202020,
10111010,
1121,
10111010,
1122,
10111010,
1121,
10111010,
20222020,
10101100,
10010010,
10101100,
10010010,
10201200,
10020020,
7,
08,
#GOGOEND
0003,
10111010,
1121,
10111010,
1122,
10111010,
1121,
10112010,
10222020,
10111010,
1121,
10111010,
1121,
10111010,
1112,
3,
#SCROLL 0.87
2,
#SCROLL 0.75
2,
#SCROLL 0.63
2,
#SCROLL 0.5
22000000,
200200000000200020002000,
100010001000100000100100,
0000020000100000,
#SCROLL 0.53
#BPMCHANGE 260
700
#SCROLL 0.58
#BPMCHANGE 240
000
#SCROLL 0.63
#BPMCHANGE 220.01
000
#SCROLL 1.4
#BPMCHANGE 100
008,
#BPMCHANGE 280
#SCROLL 0.63
1222,
#SCROLL 0.75
2022,
#SCROLL 0.87
1222,
#SCROLL 1
20222000,
10010010,
01002010,
0122,
00101110,
0110,
112200,
1100,
10111020,
10102210,
1220,
0301,
00700008,
11010100,
11010100,
11201000,
10111000,
11010100,
11010100,
11202000,
10222000,
3,
02,
#MEASURE 6/4
102,
#MEASURE 4/4
3,
5,
000000000000000000000000000000000000000000000008,
,
3,
02,
1,
#MEASURE 2/4
111,
#MEASURE 4/4
3,
5,
000000000000000000000000000000000000000000000008,
,
2,
2,
000100010007,
,
800100001000,
200001000200,
002000100001,
000100202000,
11000011,
02,
11000011,
02,
22022022,
02202000,
25,
#BARLINEOFF
,
,
000000000000000000000008000000000000000000000000,
#MEASURE 5/4
#BPMCHANGE 300
#SCROLL 0.8
02000020000020000000,
#SCROLL 0.7
2002002000,
#SCROLL 0.6
2002002000,
#BARLINEON
#SCROLL 1
#BPMCHANGE 302.03
2020222000,
#GOGOSTART
#BPMCHANGE 300
1011011010,
1011011010,
1011011010,
#MEASURE 6/4
102010207008,
#MEASURE 5/4
1011011010,
1011011010,
1011011010,
12122,
1011011010,
#GOGOEND
#MEASURE 4/4
1222,
2708,
#GOGOSTART
10111010,
1121,
10111010,
1122,
10111010,
1121,
10111010,
20222020,
10111010,
1121,
10111010,
1122,
10111010,
1111,
10111011,
10111111,
5,
000000000000000000000000000000000000000000000008,
#GOGOEND
,
,
#BPMCHANGE 289.26
0
#BPMCHANGE 269.34
0,
#BPMCHANGE 235.68
,
#BPMCHANGE 140
2002,
#MEASURE 3/4
#BPMCHANGE 142.35
#SCROLL 0.98
202,
#MEASURE 2/4
#BPMCHANGE 140
#SCROLL 1
1,
#MEASURE 4/4
7,
#BPMCHANGE 120.9
000000000000
#BPMCHANGE 100.83
000000000000
#BPMCHANGE 76.7
000000000000
#BPMCHANGE 85.78
000000000008,
#MEASURE 4/4
,
,
,
#END

COURSE:Normal
LEVEL:7
BALLOON:7,8,7,3,6,25
SCOREINIT:3170
SCOREDIFF:0
#START
2002,
#MEASURE 3/4
202,
#MEASURE 4/4
22,
#BPMCHANGE 280
#BARLINEOFF
07,
#BARLINEON
00000008,
#GOGOSTART
1001,
1,
#MEASURE 6/4
110110,
#MEASURE 4/4
25,
,
000000000000000000000000000000000008000000000000,
1110,
1110,
1120,
1110,
1120,
1110,
1121,
1110,
2220,
11,
10010010,
11,
10010010,
22,
20020020,
7,
08,
#GOGOEND
,
1110,
1120,
1110,
1120,
1110,
1121,
1110,
2220,
1111,
1120,
1111,
1120,
1111,
1212,
3,
#SCROLL 0.87
2,
#SCROLL 0.75
2,
#SCROLL 0.63
2,
#SCROLL 0.5
1,
2,
1,
,
#SCROLL 0.53
#BPMCHANGE 260
700
#SCROLL 0.58
#BPMCHANGE 240
000
#SCROLL 0.63
#BPMCHANGE 220.01
000
#SCROLL 1.4
#BPMCHANGE 100
008,
#BPMCHANGE 280
#SCROLL 0.63
12,
#SCROLL 0.75
2022,
#SCROLL 0.87
1220,
#SCROLL 1
22,
1001,
01002000,
0120,
0110,
0110,
12,
1,
1112,
1021,
0220,
0300,
00700008,
10010100,
10010100,
1210,
1110,
10010100,
10010100,
1220,
1220,
3,
02,
#MEASURE 6/4
102,
#MEASURE 4/4
3,
5,
000000000000000000000000000000000000000000000008,
,
3,
02,
1,
#MEASURE 2/4
1,
#MEASURE 4/4
3,
5,
000000000000000000000000000000000000000000000008,
,
2,
2,
000100000007,
,
800100001000,
1002,
002000200000,
000100001000,
11000011,
02,
11000011,
02,
20020020,
02002000,
25,
#BARLINEOFF
,
,
000000000000000000000008000000000000000000000000,
#MEASURE 5/4
#BPMCHANGE 300
#SCROLL 0.8
02000000000020000000,
#SCROLL 0.7
20020,
#SCROLL 0.6
20020,
#BARLINEON
#SCROLL 1
#BPMCHANGE 302.03
20220,
#GOGOSTART
#BPMCHANGE 300
1001001010,
1001001010,
1001001010,
#MEASURE 6/4
121220,
#MEASURE 5/4
1001001010,
1001001010,
1001001010,
12120,
1001001010,
#GOGOEND
#MEASURE 4/4
1220,
2,
#GOGOSTART
1110,
1120,
1110,
1120,
1110,
1121,
1110,
2220,
1110,
1120,
1110,
1120,
1111,
1110,
1111,
1111,
5,
000000000000000000000000000000000000000000000008,
#GOGOEND
,
,
#BPMCHANGE 289.26
0
#BPMCHANGE 269.34
0,
#BPMCHANGE 235.68
,
#BPMCHANGE 140
2002,
#MEASURE 3/4
#BPMCHANGE 142.35
#SCROLL 0.98
202,
#MEASURE 2/4
#BPMCHANGE 140
#SCROLL 1
1,
#MEASURE 4/4
7,
#BPMCHANGE 120.9
000000000000
#BPMCHANGE 100.83
000000000000
#BPMCHANGE 76.7
000000000000
#BPMCHANGE 85.78
000000000008,
#MEASURE 4/4
,
,
,
#END

COURSE:Easy
LEVEL:4
BALLOON:4,6,4,4,20
SCOREINIT:5760
SCOREDIFF:0
#START
2,
#MEASURE 3/4
2,
#MEASURE 4/4
22,
#BPMCHANGE 280
#BARLINEOFF
07,
#BARLINEON
00000008,
#GOGOSTART
1,
1,
#MEASURE 6/4
100110,
#MEASURE 4/4
15,
,
000000000000000000000000000000000008000000000000,
,
11,
1,
11,
2,
11,
12,
11,
2,
11,
1,
11,
2,
11,
12,
7,
08,
#GOGOEND
,
11,
1,
11,
2,
11,
12,
11,
2,
11,
1,
11,
2,
11,
11,
3,
#SCROLL 0.87
2,
#SCROLL 0.75
2,
#SCROLL 0.63
,
#SCROLL 0.5
1,
1,
,
2,
#SCROLL 0.53
#BPMCHANGE 260
700
#SCROLL 0.58
#BPMCHANGE 240
000
#SCROLL 0.63
#BPMCHANGE 220.01
000
#SCROLL 1.4
#BPMCHANGE 100
008,
#BPMCHANGE 280
#SCROLL 0.63
11,
#SCROLL 0.75
1,
#SCROLL 0.87
11,
#SCROLL 1
1,
1001,
02,
0100,
0100,
0100,
1,
2,
1,
1001,
02,
0300,
0200,
1,
1,
11,
1,
1,
2,
22,
1,
3,
,
#MEASURE 6/4
1,
#MEASURE 4/4
3,
5,
000000000000000000000000000000000000000000000008,
,
3,
,
1,
#MEASURE 2/4
,
#MEASURE 4/4
3,
5,
000000000000000000000000000000000000000000000008,
,
2,
2,
000100000007,
,
8100,
1002,
01,
0100,
1001,
02,
1001,
02,
1001,
02,
25,
#BARLINEOFF
,
,
000000000000000000000008000000000000000000000000,
#MEASURE 5/4
#BPMCHANGE 300
#SCROLL 0.8
02000000000000000000,
#SCROLL 0.7
2,
#SCROLL 0.6
2,
#BARLINEON
#SCROLL 1
#BPMCHANGE 302.03
2,
#GOGOSTART
#BPMCHANGE 300
10010,
10010,
10010,
#MEASURE 6/4
122,
#MEASURE 5/4
10010,
10010,
10010,
10200,
10010,
#GOGOEND
#MEASURE 4/4
2,
,
#GOGOSTART
11,
1,
11,
2,
11,
12,
11,
2,
11,
1,
11,
2,
11,
1011,
11,
1110,
5,
000000000000000000000000000000000000000000000008,
#GOGOEND
,
,
#BPMCHANGE 289.26
0
#BPMCHANGE 269.34
0,
#BPMCHANGE 235.68
,
#BPMCHANGE 140
2,
#MEASURE 3/4
#BPMCHANGE 142.35
#SCROLL 0.98
2,
#MEASURE 2/4
#BPMCHANGE 140
#SCROLL 1
1,
#MEASURE 4/4
7,
#BPMCHANGE 120.9
000000000000
#BPMCHANGE 100.83
000000000000
#BPMCHANGE 76.7
000000000000
#BPMCHANGE 85.78
000000000008,
#MEASURE 4/4
,
,
,
#END
