//TJADB Project
TITLE:Practice Love
TITLEJA:修錬愛情 Practice Love
SUBTITLE:--
SUBTITLEJA:
BPM:67.5
WAVE:Practice Love.ogg
OFFSET:-3.188
DEMOSTART:48.373

COURSE:Oni
LEVEL:7
BALLOON:48
SCOREINIT:3730
SCOREDIFF:0
#START
1010201010102002,
2010101020102120,
1010201010102002,
2010101120000000,
1010201011212020,
500000000000000008000000100000100000200000100100,
1010201011212020,
500000000000000008000000200000000000000000100200, //8
1011202121112021,
1120201020112122,
1011212010112021,
1120201021121021,
1210101020001121, //13
#GOGOSTART
1010102120201121,
1011101120101021,
1011211020211120,
500000000000000008000000100000200000200100100000,
4000211040102211,
2021101120210021,
1021201120212110,
600000000000000000000008000000200000100100200100, //21
1010102120201121,
1020210120102011,
1011211020211120,
500000000000000008000000200000200000100200200000,
4000122040101221,
2011201020120021,
1021201120212010,
7, //29
08,
0,
#GOGOEND
#BARLINEOFF
0, //32
#END

COURSE:Hard
LEVEL:5
BALLOON:20,41
SCOREINIT:5220
SCOREDIFF:0
#START
11211120,
1000101020101110,
11211120,
20112000,
1010201010111020,
500000000000000008000000100000000000200000000000,
1010201010111020,
500000000000000008000000100000000000000000100000, //8
1011102010111010,
1000202020022010,
1011102010111010,
1000202020022010,
7008, //13
#GOGOSTART
1010100020001110,
1020100020202011,
1022200010202020,
500000000000000008000000100000000000100100100000,
4000111040001110,
2010101020010011,
1020201110102010,
600000000000000000000008000000000000100100100000, //21
1010100020001110,
1020100020202011,
1022200010202020,
500000000000000008000000200000000000100100100000,
4000111040001110,
2010101020010011,
1020201110102010,
9, //29
09008000,
0,
#GOGOEND
#BARLINEOFF
0, //32
#END

COURSE:Normal
LEVEL:3
BALLOON:16,28
SCOREINIT:7990
SCOREDIFF:0
#START
11101110,
10101120,
11101110,
1120,
11102021,
500000000000000008000000000000000000100000000000,
11102021,
500000000000000008000000000000000000000000000000, //8
11201120,
1220,
11201120,
10202021,
7008, //13
#GOGOSTART
11102010,
11102220,
11201220,
500000000000000008000000000000000000100000100000,
40114011,
21102000,
12201120,
600000000000000000000008000000000000100000000000, //21
11102010,
11102220,
11201220,
500000000000000008000000000000000000100000100000,
40114011,
21102000,
11101120,
9, //29
09008000,
0,
#GOGOEND
#BARLINEOFF
0, //32
#END

COURSE:Easy
LEVEL:2
BALLOON:13,25
SCOREINIT:12880
SCOREDIFF:0
#START
1110,
1120,
1110,
1120,
1111,
500000000000000008000000000000000000000000000000,
1111,
500000000000000008000000000000000000000000000000, //8
1011,
12,
1011,
12,
70000800, //13
#GOGOSTART
11101010,
11102000,
1022,
500000000000000008000000000000000000100000000000,
3131,
1110,
1022,
600000000000000008000000000000000000100000000000, //21
11101010,
11102000,
1022,
500000000000000008000000000000000000100000000000,
3131,
1220,
1022,
9, //29
09008000,
0,
#GOGOEND
#BARLINEOFF
0, //32
#END
