TITLE:DANCE MONKEY
SUBTITLE:--TONES AND I
BPM:98
WAVE:DANCE MONKEY.ogg
OFFSET:-2.502
DEMOSTART:107.8

COURSE:Oni
LEVEL:7
BALLOON:10,10,20
SCOREINIT:2500
SCOREDIFF:0
#START
,
,
,
10210212,
10210212,
10210212,
10210211,
10210212,
10210212,
500000000000000000000000000000000000000008000000,
1000
#SCROLL 1.0435
#BPMCHANGE 92
7008,
#SCROLL 1
#BPMCHANGE 98
100100200201100200201001,
100100200001100200201001,
100100200001100200201001,
10207008,
100100200201100200201001,
100100200001100200201001,
100100200201100200201001,
1022,
100202100200100202100200,
1111,
12121012,
12102020,
100202100200100202100200,
1111,
12121012,
12102020,
#GOGOSTART
100201100200100201100201,
100400300400300000101001,
100200100200100201100200,
11202020,
100201100200100201100201,
100100200201100200101001,
100200100200101002100200,
100100200201100200100000,
#GOGOEND
1202,
1202,
1202,
1202,
100000200001100100201001,
100000200001100100201001,
100000200001100100200000,
70000008,
#GOGOSTART
100201100200100201100201,
100100200201100200101001,
100200100200100201100200,
11204040,
100201100200100201100201,
100100200201100200101001,
100200100200101002100200,
11204040,
100201100201100201100201,
100400300400300000101001,
100202100200100202100200,
11204040,
100201100201100201100201,
100100200201100200101001,
#GOGOEND
100200200100202002000200,
12022020,
2,
#END

COURSE:Hard
LEVEL:5
BALLOON:8,8,16
SCOREINIT:3410
SCOREDIFF:0
#START
,
,
,
10010010,
10010010,
10010010,
10010010,
10210010,
10210010,
500000000000000000000000000000000000000008000000,
1000
#SCROLL 1.0435
#BPMCHANGE 92
7008,
#SCROLL 1
#BPMCHANGE 98
100000200001100100200000,
11201120,
100000200001100100200000,
10207008,
100000200001100100200000,
11201120,
100000200001100100200000,
1022,
12121210,
1111,
12121012,
12102020,
12121210,
1111,
12121012,
12102020,
#GOGOSTART
100200100001100100200000,
34343020,
12121012,
11202020,
100200100001100100200000,
100100200001100100200000,
12121012,
11201020,
#GOGOEND
1202,
1202,
1202,
1202,
100000200001100100200000,
100000200001100100200000,
100000200001100100200000,
70000008,
#GOGOSTART
100200100001100100200000,
100100200001100100200000,
12121012,
11204040,
100200100001100100200000,
100100200001100100200000,
12121012,
11204040,
100200100101100100200000,
34343020,
12121012,
11204040,
100200100101100100200000,
100100200001100100200000,
#GOGOEND
12121010,
1022,
2,
#END

COURSE:Normal
LEVEL:2
BALLOON:11
SCOREINIT:3410
SCOREDIFF:0
#START
,
,
,
10010000,
10010000,
10010000,
10010000,
10010010,
10010010,
500000000000000000000000000000000000000008000000,
1
#SCROLL 1.0435
#BPMCHANGE 92
0,
#SCROLL 1
#BPMCHANGE 98
1112,
1202,
1212,
11,
1112,
1202,
1212,
1022,
1111,
1112,
1111,
1122,
1111,
1112,
1111,
1122,
#GOGOSTART
11201020,
30333020,
1111,
1022,
11201020,
1210,
1111,
12,
#GOGOEND
22,
22,
2,
22,
1012,
1012,
1012,
70000008,
#GOGOSTART
11201020,
1210,
1111,
1044,
11201020,
1210,
1111,
1044,
11201020,
30333020,
1111,
1044,
11201020,
1210,
#GOGOEND
1222,
2022,
2,
#END

COURSE:Easy
LEVEL:2
BALLOON:6
SCOREINIT:8670
SCOREDIFF:0
#START
,
,
,
1,
1,
1,
2,
1,
1,
500000000000000000000000000008000000000000000000,
1
#SCROLL 1.0435
#BPMCHANGE 92
0,
#SCROLL 1
#BPMCHANGE 98
1,
1,
11,
1,
11,
1,
11,
1022,
1110,
12,
11,
1022,
1110,
12,
11,
1022,
#GOGOSTART
1110,
600000000000000000000000000008000000000000000000,
1110,
1022,
1110,
12,
1110,
12,
#GOGOEND
2,
2,
2,
2,
1002,
1002,
1002,
70000008,
#GOGOSTART
1111,
11,
1110,
1044,
1111,
11,
1110,
1044,
1111,
600000000000000000000000000008000000000000000000,
1110,
1044,
1111,
11,
#GOGOEND
12,
1022,
2,
#END
