//TJADB Project
TITLE:Just Awake
TITLEJA:Just Awake
SUBTITLE:--Fear, and Loathing in Las Vegas/HUNTER×HUNTER
SUBTITLEJA:Fear, and Loathing in Las Vegas 「Hunter×Hunter」より
BPM:191
WAVE:Just Awake.ogg
OFFSET:-0.546
DEMOSTART:44.793

COURSE:Oni
LEVEL:8
SCOREINIT:1910
SCOREDIFF:0
#START
12201211,
0010001010222000,
12201211,
0010001010222010,
3000111011101110,
1111101011101110,
1111201122201110,
1110400000202020,
1000222010102011,
1010201010112010,
1000222010102011,
1010201010222000,
1000222010102011,
1010201020100011,
1010201020200011,
11212210,
1110001000111000,
1122201010112020,
1111201010121020,
12212211,
0011200010102010,
01210121,
0011200011112000,
1022111010100011,
1020102010201120,
1020102010101120,
1020102010201120,
11211223,
0011200020112000,
1011201012102030,
0011201110112000,
2210111022221011,
1020112010201120,
1020112010201120,
30333333,
30002220111120
#GOGOSTART
30,
0010201110102012,
1010200011102030,
0010201110102000,
1212102010222210,
1120102011201022,
1020112010201020,
1120102010222011,
1010201022102030,
0010201110102012,
1010200011102030,
0010201110102000,
1212102010222220,
1120102011201022,
1020102011201000,
600000000008000000600000000008000000600000000008,
000000600000000008000000300000000000300000000000,
32230230,
#GOGOEND
,
1011201010002000,
1011201010112000,
1020112010222000,
1110201000101022,
1011201010002000,
1011202010112000,
1020112010222000,
1110201110202010,
3,
#END

COURSE:Hard
LEVEL:5
BALLOON:10,6,9
SCOREINIT:3680
SCOREDIFF:0
#START
10101101,
01011100,
10101101,
01011100,
1111,
1011,
9,
8,
10201011,
01211010,
10201011,
01211010,
10201011,
01212101,
01212101,
01212110,
30010110,
12201220,
30010110,
12201221,
01101021,
01110121,
01102010,
70000800,
10201120,
10201121,
10201120,
10011003,
01101010,
11101003,
01101010,
11101020,
10211021,
10211010,
7,
8000000
#GOGOSTART
3,
01201110,
10201103,
01201110,
12101000,
11221011,
01101020,
11221101,
01110103,
01201110,
10201103,
01201110,
12101000,
11201121,
01101020,
6,
000000000000000000000000000000000008000000000000,
30130130,
#GOGOEND
,
10111020,
12010120,
01010120,
10110110,
10111020,
12010120,
01010120,
10110111,
3,
#END

COURSE:Normal
LEVEL:4
BALLOON:7,5,7,4,6,7,6
SCOREINIT:6630
SCOREDIFF:0
#START
1110,
01,
1110,
01,
1011,
1011,
9,
8,
10101001,
0011,
10101001,
00011010,
10101001,
00001007,
00000807,
0008,
3,
1022,
3,
20202001,
00101001,
01000001,
00100010,
70000800,
1011,
11,
1011,
10001003,
01,
10001003,
01,
7008,
11,
1212,
7,
8000000
#GOGOSTART
3,
0221,
10201003,
0221,
1210,
10111001,
01101020,
10111007,
00000803,
0221,
10201003,
0221,
1210,
11101001,
01101010,
6,
000000000000000000000000000000000008000000000000,
30030040,
#GOGOEND
,
1011,
01010010,
01010010,
10110100,
1011,
01010010,
01010010,
10110100,
3,
#END

COURSE:Easy
LEVEL:3
BALLOON:6,10,6,4
SCOREINIT:11070
SCOREDIFF:0
#START
1,
,
1,
,
1,
11,
9,
8,
11,
0011,
11,
0011,
11,
00001007,
,
0008,
3,
1,
3,
20000001,
01,
00000001,
,
1,
11,
11,
12,
10000003,
01,
10000003,
01,
1,
11,
1110,
7,
8000000
#GOGOSTART
3,
0001,
10001003,
0001,
1010,
1110,
0110,
10101007,
00000803,
0001,
10001003,
0001,
1020,
1110,
0110,
6,
000000000000000000000000000000000008000000000000,
3003,
#GOGOEND
,
1011,
0011,
0011,
1,
1011,
0011,
0011,
1,
3,
#END
