//TJADB Project
TITLE:Donderful Everyday
TITLEJA:まいにちがドンダフル
SUBTITLE:--Cory Tarrow / "Taiko no Tatsujin: Rhythm Festival" Main Theme
SUBTITLEJA:「太鼓の達人 ドンダフルフェスティバル」テーマソング
BPM:138
WAVE:Donderful Everyday.ogg
OFFSET:-2.257
DEMOSTART:29.864 //Note: (NS2 Only?) Balloon in Normal #71 ends at the same position as 1st note in #72. //Shinuchi:
6180/3610/2260/1510

COURSE:Oni
LEVEL:8
BALLOON:10,12,18,18,13
SCOREINIT:520,1640
SCOREDIFF:120
#START
1121201202012010,
22201110,
1121201202012010,
2002002010010010,
1121201202012010,
22201110,
1121201202012010,
2002007000000080, //8
1122101022112020,
1010102010100200,
1122101022112020,
1010201022002200,
1122101022112020,
11120000,
1102110270000000,
08000000, //16
#GOGOSTART
1021101020211010,
2021102011201120,
500000000000000000000000000000000008000000000000,
1010202000202220,
1021101020211020,
1021102011201120,
70000008,
100000100100000200200000500000000000000008000000, //24
1021101020211010,
2021102011201120,
500000000000000000000000000000000000000008000000,
1001001000202200,
1021101020211010,
2021102030003000,
600000000000000000000000000000000008000000000000,
1114, //32
#GOGOEND
1012012120102120,
1210000040004000,
1012112021010222,
11003030,
2202202022020222,
22004040,
100010000010200022200020,
101001100400, //40
100000100000200022200020,
101001100400,
1122101022112020,
1011201020102102,
1122101022112020,
1011201022102000,
1102110211021120,
11210040, //48
#GOGOSTART
1021101020211010,
2021102011201120,
500000000000000000000000000000000008000000000000,
1010201011202222,
1021101020211020,
1021102011201120,
7,
#GOGOEND
8, //56
#MEASURE 2/4
#GOGOSTART
0
#GOGOEND
3,
#GOGOSTART
0
#GOGOEND
4,
#MEASURE 4/4
#GOGOSTART
1021102011201120,
500000000000000000000000000000000008000000000000,
1001002002112111,
1021101020211010,
2021102030003000,
600000000000000000000000000000000008000000000000,
1114, //65
#GOGOEND
1022202020002220,
1021021010002222,
1021021020002220,
1021021010202220,
1122102210221022,
7008,
100000100000100010100100,
200000200000200020200200,
1020100020012000, //74
#GOGOSTART
1021101120211011,
2021102011201120,
500000000000000000000000000000000008000000000000,
1021012012012111,
1021101120211011,
2021102030003000,
600000000000000000000000000000000008000000000000,
3003003000000000, //82
#GOGOEND
1000201120002220,
1001200030000000,
0,
0, //86
#END

COURSE:Hard
LEVEL:5
BALLOON:7,8,15,15,11
SCOREINIT:540,2680
SCOREDIFF:133
#START
1000101101011000,
22200000,
1000101101011000,
2002002000000000,
1000101101011000,
22200000,
1000101101011000,
2002007000000080, //8
1110100020222000,
11120000,
1110100020222000,
11210000,
1110100020222000,
11120000,
3370,
08000000, //16
#GOGOSTART
12002102,
11221010,
500000000000000000000000000000000008000000000000,
11220220,
12002102,
11221010,
9009,
8, //24
34004302,
11201010,
500000000000000000000000000000000008000000000000,
1001001000202000,
43003401,
21223030,
600000000000000000000000000000000008000000000000,
1114, //32
#GOGOEND
1011010110100000,
11004040,
1010111011010000,
11003030,
2202202022020000,
22004040,
101001102200,
101001100400, //40
100100202200,
101001100400,
1110100020222000,
11212020,
1110100020222000,
11120000,
3334,
11210040, //48
#GOGOSTART
12002102,
11221010,
500000000000000000000000000000000008000000000000,
10111220,
21001202,
11221010,
9009,
#GOGOEND
8, //56
#MEASURE 2/4
#GOGOSTART
0
#GOGOEND
3,
#GOGOSTART
0
#GOGOEND
4,
#MEASURE 4/4
#GOGOSTART
11201010,
500000000000000000000000000000000008000000000000,
1001102002202000,
43003401,
21223030,
600000000000000000000000000000000008000000000000,
1114, //65
#GOGOEND
10022000,
1001001010000000,
1001001020000000,
1001001010000000,
1011101010111010,
7008,
100100101100,
200200202200,
1020100020022000, //74
#GOGOSTART
34004302,
11201212,
500000000000000000000000000000000008000000000000,
1011011011001000,
43003401,
21223030,
600000000000000000000000000000000008000000000000,
3003003000000000, //82
#GOGOEND
10212022,
1002200030000000,
0,
0, //86
#END

COURSE:Normal
LEVEL:4
BALLOON:5,6,10,10,9
SCOREINIT:650,4670
SCOREDIFF:170
#START
1101,
22200000,
1101,
2002002000000000,
1101,
22200000,
1101,
2002007000000080, //8
1120,
12,
1120,
1022,
1120,
500000000000000000000008000000000000000000000000,
3370,
08000000, //16
#GOGOSTART
11002200,
1211,
500000000000000000000000000000000000000000000008,
0,
11002200,
1211,
9009,
8, //24
33004400,
1211,
500000000000000000000000000000000000000000000008,
0,
44003300,
1233,
600000000000000000000000000000000008000000000000,
1114, //32
#GOGOEND
12,
11004040,
12,
11003030,
22,
22004040,
1022,
1110, //40
1022,
1024,
1122,
12,
1122,
500000000000000000000008000000000000000000000000,
3330,
500000000000000008000000000000000000000000000000, //48
#GOGOSTART
11002200,
1211,
500000000000000000000000000000000000000000000008,
0,
22001100,
1211,
9009,
#GOGOEND
8, //56
#MEASURE 2/4
#GOGOSTART
0
#GOGOEND
3,
#GOGOSTART
0
#GOGOEND
4,
#MEASURE 4/4
#GOGOSTART
1211,
500000000000000000000000000000000008000000000000,
1001001000000000,
44003300,
1233,
600000000000000000000000000000000008000000000000,
1114, //65
#GOGOEND
12,
11,
12,
11,
11101110,
70000008,
1113,
2224,
11104000, //74
#GOGOSTART
33004400,
1211,
500000000000000000000000000000000008000000000000,
1001001001001000,
44003300,
1233,
600000000000000000000000000000000008000000000000,
3003003000000000, //82
#GOGOEND
1220,
1230,
0,
0, //86
#END

COURSE:Easy
LEVEL:2
BALLOON:4,5,8,8,5
SCOREINIT:640,8300
SCOREDIFF:220
#START
1,
2200,
1,
20020000,
1,
2200,
1,
20070008, //8
12,
1,
12,
1,
12,
500000000000000000000008000000000000000000000000,
3370,
08000000, //16
#GOGOSTART
12,
1011,
500000000000000000000000000000000000000000000008,
0,
12,
1011,
9009,
8, //24
34,
1011,
500000000000000000000000000000000000000000000008,
0,
43,
1033,
600000000000000000000000000000000000000000000008,
0004, //32
#GOGOEND
0,
0044,
0,
0033,
0,
0044,
12,
1110, //40
12,
1022,
11,
1,
11,
1,
3330,
500000000000000008000000000000000000000000000000, //48
#GOGOSTART
12,
1011,
500000000000000000000000000000000000000000000008,
0,
21,
1011,
9009,
#GOGOEND
8, //56
#MEASURE 2/4
#GOGOSTART
0
#GOGOEND
3,
#GOGOSTART
0
#GOGOEND
4,
#MEASURE 4/4
#GOGOSTART
1011,
500000000000000000000000000000000000000000000008,
0,
43,
1033,
600000000000000000000000000000000000000000000008,
0004, //65
#GOGOEND
02,
01,
02,
01,
1111,
7008,
1110,
2220,
1140, //74
#GOGOSTART
34,
1011,
500000000000000000000000000000000000000000000008,
0,
43,
1033,
600000000000000000000000000000000000000000000008,
0, //82
#GOGOEND
11,
13,
0,
0, //86
#END
