//TJADB Project
TITLE:Doppelgängers
TITLEJA:Doppelgangers
SUBTITLE:--Alice Schach & The Magic Orchestra
SUBTITLEJA:アリスシャッハと魔法の楽団
BPM:208
WAVE:Doppelgangers.ogg
OFFSET:-2.841
DEMOSTART:27.623

COURSE:Edit
LEVEL:10
BALLOON:8,15,3
SCOREINIT:390,1080
SCOREDIFF:90
#START
#BARLINEOFF
#MEASURE 8/4
#SCROLL 0.5
0,
#BARLINEON
2222,
#MEASURE 4/4
2,
#MEASURE 1/8
#SCROLL 1.2
7,
#SCROLL 1.44
0,
#SCROLL 1.73
0,
#SCROLL 2.07
0,
#MEASURE 1/16
#SCROLL 2.48
8,
#SCROLL 2.07
0,
#SCROLL 1.73
0,
#SCROLL 1.44
0,
#SCROLL 1.2
0,
#SCROLL 1.73
0,
#SCROLL 2.48
0,
#SCROLL 2.98
0, //15
#MEASURE 8/4
#SCROLL 0.5
100000100100220000200000100220000200100000000200,
100000100100110000220000100220000200100000000200,
100000100100220000200000100220000200100000000200,
100000100100220000200000100000200200100000000000,
100000200200222000200000200222000200100000200200,
10000020102000201111101020000000,
10002220100022227000000000000000,
#MEASURE 1/8
080000,
#SCROLL 0.6
0,
#SCROLL 0.72
0,
#SCROLL 0.86
0,
#SCROLL 1.04
0,
#SCROLL 1.24
0,
#SCROLL 1.49
0,
#SCROLL 1.79
0,
#MEASURE 4/4
#SCROLL 2.15
0000
#SCROLL 0.5
1111, //31
#MEASURE 8/4
10001010200010001000222010002000,
10001110100010102010001110002000,
10001010200020001000222020002000,
10001110100010102010001120002000,
30001010200010001000222010002000,
10001110100010102010201110002000,
10001020100020201000222210002020,
100000000000100100100100100010001000100000100000200000000000100000000000200000200000100000000000, //39
#SCROLL 1
100000000000100010001000100000000000200200200000100000200000200000200000100000000100100000100000,
10002020101120102220202010011010,
1121211121212122,
300000000000200020002000100000000000200200100100100000000000200000000000100000100100100000000000,
30001010200022202011002010110020,
100000000000100010001000100000200000100000100000100100200000100000100000100000200200100000100000,
10102010201010102010201020112000,
10200011101010001000
#SCROLL 0.88
2000
#SCROLL 0.76
2000
#SCROLL 0.64
2000, //47
#SCROLL 0.5
10001010100010002222222210000000,
10000010100020201020002010000011,
1001122210001112,
1022101020121010,
100000100100100000100000102020202020100000200000,
100000200000101010101010100200200200100000200000,
10002020100020201020202011111111,
2011122212221000, //55
#MEASURE 1/16
#BPMCHANGE 52
3,
#BARLINEOFF
#MEASURE 7/4
#BPMCHANGE 208
#SCROLL 0.75
2020100010201000202010002222,
#BARLINEON
#MEASURE 8/4
100000200200100000100200300
#SCROLL 1
030
#SCROLL 1.5
003
#SCROLL 2
000300000000000, //58
#SCROLL 0.75
3000
#SCROLL 1.5
4000
#SCROLL 0.75
3000
#SCROLL 2
4000
#SCROLL 0.75
1111111020202020,
100000000000200100200000100000000000200000200000100000001000000010000000700000000080000000000000,
30000000222222221000200011111011,
100000102020002011111010
#SCROLL 3
400000
#SCROLL 0.75
20, //62
100100100100200000200000101010100000200200200000500000000000000000000000000000000000000008000000,
#MEASURE 1/16
#BPMCHANGE 108.14
#SCROLL 1
2,
#BPMCHANGE 113.7
0,
#BPMCHANGE 122.59
0,
#BPMCHANGE 131.75
0,
#BPMCHANGE 136.87
0,
#BPMCHANGE 143.9
0,
#BPMCHANGE 156.57
0,
#BPMCHANGE 165.83
0,
#MEASURE 4/4
#BPMCHANGE 177.06
400000000220000000000000,
#BPMCHANGE 179.3
3000202211222222, //73
#BPMCHANGE 178
#SCROLL 1.25
#GOGOSTART
1011201110102211,
1011202211221120,
1011201110102220,
100000202020100000100000100200100200100200100000,
1011201110102211,
1022201012121120,
1011201110101122,
1122112212221222, //81
1011201110102211,
1011102211221120,
1011201110102220,
100000202020100000100000100200100200100200100000,
1011201110112210,
1012102211221122,
1010101210221122,
1012112211221220, //89
#SCROLL 1
300100200111200100200222,
1210201110102020,
100100200111200100200222,
1210202110102122,
100100200111200100200222,
100200100000200000200100100000100100200000202020,
1011201110112010,
1111122112221120, //97
300100200111200100200222,
1210201110102020,
100100200111200100200222,
1210202110102122,
100100200111200100200222,
100200100000200000100200100000100100200000101010,
200100200111200100200111,
200000100100100200100100200200100100200100202020,
#GOGOEND
2,
#BARLINEOFF
0,
0, //108
#END

COURSE:Oni
LEVEL:8
BALLOON:26,12
SCOREINIT:480,1560
SCOREDIFF:118
#START
#BARLINEOFF
#MEASURE 8/4
#SCROLL 0.5
0,
#BARLINEON
2222,
#MEASURE 4/4
2,
#MEASURE 1/8
#SCROLL 1.2
4,
#SCROLL 1.44
0,
#SCROLL 1.73
0,
#SCROLL 2.07
0,
#MEASURE 1/16
#SCROLL 2.48
0,
#SCROLL 2.07
0,
#SCROLL 1.73
0,
#SCROLL 1.44
0,
#SCROLL 1.2
0,
#SCROLL 1.73
0,
#SCROLL 2.48
0,
#SCROLL 2.98
0, //15
#MEASURE 8/4
#SCROLL 0.5
1010121010112000,
1010122010222000,
1010121010112000,
1010101020002220,
20222020,
2000220210022000,
700000000000000000000000000000000000000000000000000000000000000000000000000000000000000000000008,
#MEASURE 1/8
0,
#SCROLL 0.6
0,
#SCROLL 0.72
0,
#SCROLL 0.86
0,
#SCROLL 1.04
0,
#SCROLL 1.24
0,
#SCROLL 1.49
0,
#SCROLL 1.79
0,
#MEASURE 4/4
#SCROLL 2.15
00
#SCROLL 0.5
11, //31
#MEASURE 8/4
1011102011102020,
1011102010112020,
3011102030222010,
3021122030304040,
1000101011101020,
1110202010112020,
3011102030212120,
3011211030304000, //39
#SCROLL 1
10000000200000202000002020020020,
10002020202010001000201020020020,
1111211011112220,
500000000000000000000000000000000000000000000000000000000000000000000000000000000008000000000000,
10000000200000202002002020020020,
1022221010212210,
1111211011112220,
500000000000000000000000000000000000000000000000000000000000000000000000000000000008000000000000, //47
#SCROLL 0.5
4011101011111000,
2002101112021000,
2002101120001101,
2011201020102220,
200000200200100000200000100010001000200000100000,
200000100000100010001000200000100100200000100000,
1022102010221020,
32323230, //55
#MEASURE 1/16
#BPMCHANGE 52
#SCROLL 3
3,
#BARLINEOFF
#MEASURE 7/4
#BPMCHANGE 208
#SCROLL 0.75
21201120222011,
#BARLINEON
#MEASURE 8/4
100000200100200000100100100010001000100000200000, //58
3040304011112220,
300000200000100100100100200020002000100000000000,
3020111120002210,
1001210122221000, //62
100000000000200000000000100000100000200000000000500000000000000000000000000008000000000000000000,
#MEASURE 1/16
#BPMCHANGE 108.14
#SCROLL 1
1,
#BARLINEOFF
#BPMCHANGE 113.7
0,
#BPMCHANGE 122.59
0,
#BPMCHANGE 131.75
0,
#BPMCHANGE 136.87
0,
#BPMCHANGE 143.9
0,
#BPMCHANGE 156.57
0,
#BPMCHANGE 165.83
0,
#MEASURE 4/4
#BPMCHANGE 177.06
7008,
#BARLINEON
#BPMCHANGE 179.3
1000202210222220, //73
#BPMCHANGE 178
#GOGOSTART
1000201120100020,
0010201110202010,
1000101120102011,
1011201120112220,
1000201120100020,
0010101120102210,
6,
000000000000000000000000000000000000000008000000, //81
1000201120100020,
0010201110202010,
1000101120102011,
1010201022102211,
1000201120100020,
0010101120111020,
2011201020112010,
2011201120112220, //89
3000201211102000,
1110201120102000,
1000201211102000,
1110201120201000,
1000201211102000,
1110201120002000,
1110202011102020,
1011111022222000, //97
3000201211102000,
1110201120102000,
1110222011202210,
1110201120102000,
1000201211102000,
1110201120102110,
2011201020112010,
2011201022221111,
#GOGOEND
2,
#BARLINEOFF
0,
0, //108
#END

COURSE:Hard
LEVEL:6
BALLOON:20,14,14,38,9
SCOREINIT:630,2690
SCOREDIFF:158
#START
#BARLINEOFF
#MEASURE 8/4
#SCROLL 0.5
0,
#BARLINEON
2222,
#MEASURE 4/4
2,
#MEASURE 1/8
#SCROLL 1.2
4,
#SCROLL 1.44
0,
#SCROLL 1.73
0,
#SCROLL 2.07
0,
#MEASURE 1/16
#SCROLL 2.48
0,
#SCROLL 2.07
0,
#SCROLL 1.73
0,
#SCROLL 1.44
0,
#SCROLL 1.2
0,
#SCROLL 1.73
0,
#SCROLL 2.48
0,
#SCROLL 2.98
0, //15
#MEASURE 8/4
#SCROLL 0.5
10111020,
10112020,
10111020,
11112020,
2002,
2022,
700000000000000000000000000000000000000000000000000000000000000000000000000000000000000000000008,
#MEASURE 1/8
0,
#SCROLL 0.6
0,
#SCROLL 0.72
0,
#SCROLL 0.86
0,
#SCROLL 1.04
0,
#SCROLL 1.24
0,
#SCROLL 1.49
0,
#SCROLL 1.79
0,
#MEASURE 4/4
#SCROLL 2.15
00
#SCROLL 0.5
11, //31
#MEASURE 8/4
11211122,
11121120,
31123112,
32323330,
10111122,
11221120,
31123112,
32323330, //39
#SCROLL 1
1000200220022000,
2020200020222000,
70000800,
1000100010111000,
1000200220022000,
2020200020222000,
70000800,
1000101010111000, //47
#SCROLL 0.5
4022,
2022,
2022,
2022,
1011,
1011,
1111,
3333, //55
#MEASURE 1/16
#BPMCHANGE 52
#SCROLL 3
3,
#BARLINEOFF
#MEASURE 7/4
#BPMCHANGE 208
#SCROLL 0.75
20100020202011,
#BARLINEON
#MEASURE 8/4
100200200200101010100000, //58
12121010,
300100100100101010100000,
3000222020002000,
7, //62
000000000000000000000000000000000000000000000000000000000008000000000000000000000000000000000000,
#MEASURE 1/16
#BPMCHANGE 108.14
#SCROLL 1
1,
#BARLINEOFF
#BPMCHANGE 113.7
0,
#BPMCHANGE 122.59
0,
#BPMCHANGE 131.75
0,
#BPMCHANGE 136.87
0,
#BPMCHANGE 143.9
0,
#BPMCHANGE 156.57
0,
#BPMCHANGE 165.83
0,
#MEASURE 4/4
#BPMCHANGE 177.06
7008,
#BARLINEON
#BPMCHANGE 179.3
1, //73
#BPMCHANGE 178
#GOGOSTART
10110202,
01101110,
10011101,
10102220,
10110101,
01102020,
6,
000000000000000000000000000000000000000008000000, //81
10110202,
01101110,
10011101,
01102220,
10110202,
01102110,
21212121,
21212120, //89
30101120,
10112120,
10101120,
10112210,
10101120,
10121020,
10111120,
1000222010002000, //97
30101120,
10112120,
11101110,
10112120,
10111120,
10112120,
1011100010111000,
1011101110111000,
#GOGOEND
2,
#BARLINEOFF
0,
0, //108
#END

COURSE:Normal
LEVEL:6
BALLOON:13,9,9,25,6
SCOREINIT:710,3920
SCOREDIFF:205
#START
#BARLINEOFF
#MEASURE 8/4
#SCROLL 0.5
0,
#BARLINEON
2222,
#MEASURE 4/4
2,
#MEASURE 1/8
#SCROLL 1.2
4,
#SCROLL 1.44
0,
#SCROLL 1.73
0,
#SCROLL 2.07
0,
#MEASURE 1/16
#SCROLL 2.48
0,
#SCROLL 2.07
0,
#SCROLL 1.73
0,
#SCROLL 1.44
0,
#SCROLL 1.2
0,
#SCROLL 1.73
0,
#SCROLL 2.48
0,
#SCROLL 2.98
0, //15
#MEASURE 8/4
#SCROLL 0.5
1112,
1120,
1112,
1112,
2002,
22,
700000000000000000000000000000000000000000000000000000000000000000000000000000000000000000000008,
#MEASURE 1/8
0,
#SCROLL 0.6
0,
#SCROLL 0.72
0,
#SCROLL 0.86
0,
#SCROLL 1.04
0,
#SCROLL 1.24
0,
#SCROLL 1.49
0,
#SCROLL 1.79
0,
#MEASURE 4/4
#SCROLL 2.15
00
#SCROLL 0.5
11, //31
#MEASURE 8/4
11101110,
11121110,
3232,
30303330,
10101110,
11121110,
3232,
30303330, //39
#SCROLL 1
1022,
22202220,
70000800,
10101110,
1022,
22202220,
70000800,
10111110, //47
#SCROLL 0.5
42,
22,
22,
22,
11,
11,
1111,
3333, //55
#MEASURE 1/16
#BPMCHANGE 52
#SCROLL 3
3,
#BARLINEOFF
#MEASURE 7/4
#BPMCHANGE 208
#SCROLL 0.75
0202220,
#BARLINEON
#MEASURE 8/4
1221, //58
12121010,
30111020,
3122,
7, //62
000000000000000000000000000000000000000000000000000000000008000000000000000000000000000000000000,
#MEASURE 1/16
#BPMCHANGE 108.14
#SCROLL 1
1,
#BARLINEOFF
#BPMCHANGE 113.7
0,
#BPMCHANGE 122.59
0,
#BPMCHANGE 131.75
0,
#BPMCHANGE 136.87
0,
#BPMCHANGE 143.9
0,
#BPMCHANGE 156.57
0,
#BPMCHANGE 165.83
0,
#MEASURE 4/4
#BPMCHANGE 177.06
7008,
#BARLINEON
#BPMCHANGE 179.3
1, //73
#BPMCHANGE 178
#GOGOSTART
10110001,
01001000,
10022000,
1111,
10110001,
01002000,
6,
000000000000000000000000000000000000000008000000, //81
10110001,
01001000,
10011001,
01002000,
10110001,
01001000,
1111,
11101110, //89
3112,
1110,
1112,
1120,
1112,
1110,
10101110,
20202220, //97
3112,
1110,
1122,
1120,
1112,
1120,
1111,
1111,
#GOGOEND
2,
#BARLINEOFF
0,
0, //108
#END

COURSE:Easy
LEVEL:4
BALLOON:10,6,6,26
SCOREINIT:720,7310
SCOREDIFF:275
#START
#BARLINEOFF
#MEASURE 8/4
#SCROLL 0.5
0,
#BARLINEON
22,
#MEASURE 4/4
2,
#MEASURE 1/8
#SCROLL 1.2
0,
#SCROLL 1.44
0,
#SCROLL 1.73
0,
#SCROLL 2.07
0,
#MEASURE 1/16
#SCROLL 2.48
0,
#SCROLL 2.07
0,
#SCROLL 1.73
0,
#SCROLL 1.44
0,
#SCROLL 1.2
0,
#SCROLL 1.73
0,
#SCROLL 2.48
0,
#SCROLL 2.98
0, //15
#MEASURE 8/4
#SCROLL 0.5
1110,
1,
1110,
1,
2,
2,
700000000000000000000000000000000000000000000000000000000000000000000000000000000000000000000008,
#MEASURE 1/8
0,
#SCROLL 0.6
0,
#SCROLL 0.72
0,
#SCROLL 0.86
0,
#SCROLL 1.04
0,
#SCROLL 1.24
0,
#SCROLL 1.49
0,
#SCROLL 1.79
0,
#MEASURE 4/4
#SCROLL 2.15
0
#SCROLL 0.5
0, //31
#MEASURE 8/4
1110,
1110,
33,
3330,
1110,
1110,
33,
3330, //39
#SCROLL 1
1022,
2022,
70000800,
1111,
1022,
2022,
70000800,
1110, //47
#SCROLL 0.5
4,
2,
2,
22,
1,
1,
11,
33, //55
#MEASURE 1/16
#BPMCHANGE 52
#SCROLL 3
3,
#BARLINEOFF
#MEASURE 7/4
#BPMCHANGE 208
#SCROLL 0.75
0202000,
#BARLINEON
#MEASURE 8/4
12, //58
3110,
3110,
32,
7, //62
000000000000000000000000000000000000000000000000000000000000000000000000000000000000000000000008,
#MEASURE 1/16
#BPMCHANGE 108.14
#SCROLL 1
0,
#BARLINEOFF
#BPMCHANGE 113.7
0,
#BPMCHANGE 122.59
0,
#BPMCHANGE 131.75
0,
#BPMCHANGE 136.87
0,
#BPMCHANGE 143.9
0,
#BPMCHANGE 156.57
0,
#BPMCHANGE 165.83
0,
#MEASURE 4/4
#BPMCHANGE 177.06
0,
#BARLINEON
#BPMCHANGE 179.3
1, //73
#BPMCHANGE 178
#GOGOSTART
10000001,
01,
11,
2,
10000001,
02,
6,
000000000000000000000000000008000000000000000000, //81
10000001,
01,
10000001,
02,
10000001,
01,
1111,
1111, //89
31,
12,
11,
2,
11,
1,
22,
2, //97
31,
12,
1110,
1,
11,
1,
1110,
1110,
#GOGOEND
2,
#BARLINEOFF
0,
0, //108
#END
