// PeepoDrumKit 2023/10/28
TITLE:Chiki Chiki Bam Bam
TITLEJA:チキチキバンバン
SUBTITLE:--Ya Boy Kongming!
SUBTITLEJA:「パリピ孔明」より
BPM:128
WAVE:Chiki Chiki Bam Bam.ogg
OFFSET:-2.671
DEMOSTART:10.164

COURSE:Oni
LEVEL:7
BALLOON:6
SCOREINIT:
SCOREDIFF:
#START
3000111020201110,
2020111022201110,
2220111122221111,
2202202202202222,
1201201011201120,
2102101022102210,
1201201011201120,
2102101012121020,
1201201011201120,
2102101022102210,
1201201011201120,
2102101022102210,
1111202011112020,
1111202011112220,
1022102210221122,
7000008010221120,
1111202011112020,
1111202011112220,
1022102210221010,
1111102211102222,
1110202211102022,
1110202211102000,
1020120120102210,
500000000000000000000008000000100000100000200000,
1110202211102022,
1110202211102000,
1020120120102210,
500000000000000000000008000000000000000000000000,
#GOGOSTART
1201201011201120,
2102102022102010,
2211221022112210,
500000000000000000000000000008000000000000000000,
1201201011201120,
2102102022102010,
1122112011221120,
500000000000000000000000000008000000000000000000,
1201201011201120,
2102102022102010,
2211221022112210,
500000000000000000000000000008000000000000000000,
1201201011201120,
2102102022102010,
1122112011221120,
500000000000000000000000000008000000000000000000,
1201201201201220,
3,
#GOGOEND
#BARLINEOFF
0,
#END

COURSE:Hard
LEVEL:6
BALLOON:5
SCOREINIT:
SCOREDIFF:
#START
30201120,
10201120,
11221120,
500000000000000000000000000000000008000000000000,
1001002010201020,
2002001020102010,
1001002010201020,
2002001011101020,
1001002010201020,
2002001020102010,
1001002010201020,
200000000200000000500000000000000000000008000000,
11201120,
1010200011102020,
1010110110101010,
70080000,
11201120,
11201122,
11221212,
500000000000000000000008000000100000100000000000,
1110202011102020,
1110202011102000,
1010110110101010,
500000000000000000000008000000100000100000000000,
1110202011102020,
1110202011102000,
1010110110101010,
500000000000000000000008000000000000000000000000,
#GOGOSTART
3003001010201020,
4004000000101010,
1110111011101010,
500000000000000000000000000008000000000000000000,
3003001010201020,
4004000000101010,
2220222022202020,
500000000000000000000000000008000000000000000000,
3003001010201020,
4004000000101010,
1110111011101010,
500000000000000000000000000008000000000000000000,
3003001010201020,
4004000000101010,
2220222022202020,
500000000000000000000000000008000000000000000000,
1101101101101110,
3,
#GOGOEND
#BARLINEOFF
0,
#END

COURSE:Normal
LEVEL:3
BALLOON:4,7
SCOREINIT:
SCOREDIFF:
#START
3202,
0202,
0202,
500000000000000000000000000000000008000000000000,
1001000020002000,
2002000020002000,
1001000020002000,
2002000020202000,
1001000020002000,
2002000020002000,
1001000020002000,
200000000200000000500000000000000000000008000000,
1202,
1202,
1222,
70080000,
1202,
1202,
1222,
500000000000000000000008000000000000000000000000,
10010000,
20020000,
1112,
500000000000000000000008000000000000000000000000,
10010000,
20020000,
1112,
500000000000000000000008000000000000000000000000,
#GOGOSTART
1001000020002000,
2002000000000000,
1212,
500000000000000000000000000008000000000000000000,
1001000020002000,
2002000000000000,
1212,
500000000000000000000000000008000000000000000000,
3003000020002000,
4004000000000000,
1122,
500000000000000000000000000008000000000000000000,
3003000020002000,
4004000000000000,
1122,
500000000000000000000000000008000000000000000000,
70000008,
3,
#GOGOEND
#BARLINEOFF
0,
#END

COURSE:Easy
LEVEL:2
BALLOON:3
SCOREINIT:
SCOREDIFF:
#START
3,
,
,
500000000000000000000008000000000000000000000000,
1011,
1022,
2011,
1,
1011,
1022,
2011,
1,
0101,
0101,
0101,
70080000,
0101,
0101,
0101,
500000000000000000000008000000000000000000000000,
1,
2,
1110,
500000000000000000000008000000000000000000000000,
1,
2,
1110,
500000000000000000000008000000000000000000000000,
#GOGOSTART
1011,
2,
1110,
500000000000000000000000000008000000000000000000,
1011,
2,
2220,
500000000000000000000000000008000000000000000000,
3011,
4,
1110,
500000000000000000000000000008000000000000000000,
3011,
4,
2220,
500000000000000000000000000008000000000000000000,
,
3,
#GOGOEND
#BARLINEOFF
0,
#END
