// TJADB Project
TITLE:Darling Dance
TITLEJA:ダーリンダンス
SUBTITLE:--Kairiki Bear feat. Hatsune Miku
SUBTITLEJA:かいりきベア feat. 初音ミク
BPM:153
WAVE:Darling Dance.ogg
OFFSET:-1.619
DEMOSTART:61.03

COURSE:Oni
LEVEL:8
BALLOON:5
SCOREINIT:1380
SCOREDIFF:
#START
1022102210010010,
2002004012112000,
1120102010210010,
1021001010212020,
1120102010210010,
1212112011221122,
1120102010210010,
1021001010212020,
1120102010210010,
1212112011221122,
1022202010011020,
1001102010011020,
0040211021012010,
1120112020011010,
1020121020120210,
1020121020120210,
1011202220022010,
1210121011102020,
#GOGOSTART
1120102010210010,
1021001010212020,
1120102010210010,
1212112011221122,
#GOGOEND
1010221010021010,
1002101010021010,
0040112211222010,
2120212020011010,
1010121020120210,
2010121020120210,
1010201020022010,
200200100000200200100000300000003000000030000000,
112200112200,
221211200100,
221100221100,
212122201200,
112200112200,
221211200100,
1010111010120120,
2002003012112000,
#GOGOSTART
1120112011102020,
1002201010022010,
1120102021102010,
1002201011202010,
1120112011102020,
1002201010022010,
1012121010112210,
101030003022
#BPMCHANGE 150
#SCROLL 1.02
2010,
#GOGOEND
#BPMCHANGE 153
#SCROLL 1
1001102010210010,
1001102010210010,
1001102010210011,
2021202210112210,
1001102010210020,
1001102010210020,
1001102010210011,
2021202210121020,
7000008010201011,
1020112210000011,
1020122210005080,
1021212010210010,
2012003012112020,
1000000010000022,
2012001020020000,
#GOGOSTART
#GOGOEND
1122101021102010,
1002201011202010,
1120112011102020,
1002201010022010,
1012121010112210,
1010300030222010,
#GOGOSTART
1012101210120210,
1210121010120210,
1212112012101210,
3003002030030020,
1012101210120210,
1210121010120210,
1212121020112210,
1010300030222010,
1212121020112220,
11303040,
3332,
#GOGOEND
0,
#END

COURSE:Hard
LEVEL:6
BALLOON:10
SCOREINIT:2060
SCOREDIFF:
#START
1000100010010010,
700000000000000000000000000000080000000000000000,
1110101010020000,
1002000010020000,
1110101010020000,
1110100022202000,
1110101010020000,
1002000010020000,
1110101010020000,
1110100022202000,
1010200010010020,
1001002010010020,
04121010,
1110111020020010,
1010200010010020,
1010200010010020,
1011101010002000,
1110111020202000,
1110101010020000,
1002000010020000,
1110101010020000,
1110100022202000,
1010200010010020,
1001002010010020,
0040002011102000,
1110111020020010,
1010200010010020,
1010200010010020,
1010100010010020,
200200200000200200200000100000002000000020000000,
111100111100,
111111100100,
222200222200,
111111200100,
111100111100,
111111100100,
5,
000000000000000008000000000000000000000000000000,
#GOGOSTART
11221122,
1002000010020000,
1110111011102020,
1002002011102000,
11221122,
1002001010020000,
1110111010201020,
11303020,
#GOGOEND
1000100010010010,
2000200020020020,
1000100010010010,
2020200020202220,
1000100010010010,
2000200020020020,
1000100010010010,
22202220,
500000000000000000000008000000000000000000000000,
12112000,
21121000,
1020102010010010,
1001003000000000,
1010,
200000002000000000000000200000000200000000000000,
#GOGOSTART
1111101010102020,
1002002011102000,
11221122,
1002001010020000,
1110111010201020,
11303020,
1011102010020020,
1110102010020020,
11221212,
3004000030040000,
1011102010020020,
1110102010020020,
11221210,
11303020,
11221212,
11303040,
3332,
#GOGOEND
0,
#END

COURSE:Normal
LEVEL:5
BALLOON:7
SCOREINIT:3580
SCOREDIFF:
#START
1110,
700000000000000000000000000000080000000000000000,
1110,
1002000010020000,
1110,
11102000,
1110,
1002000010020000,
1110,
11102000,
11101000,
1010,
1212,
11101000,
11102000,
11102000,
1120,
11102220,
1110,
1002000010020000,
1110,
11102000,
11101000,
1010,
1020,
11101000,
11102000,
11102000,
1120,
22202000,
3030,
3140,
4040,
3140,
3030,
3141,
5,
000000000000000008000000000000000000000000000000,
#GOGOSTART
11101110,
1002000010020000,
11101110,
1022,
11101110,
1002000010020000,
11101110,
3330,
#GOGOEND
1110,
2220,
1110,
22202220,
1110,
2220,
1110,
22202220,
500000000000000000000008000000000000000000000000,
11111000,
22222000,
11101000,
600000000000000008000000000000000000000000000000,
1010,
2020,
#GOGOSTART
11101110,
1022,
11101110,
1002000010020000,
11101110,
3330,
11102020,
11102020,
11101010,
4040,
11102020,
11102020,
11101010,
3330,
11101010,
3330,
3330,
#GOGOEND
0,
#END

COURSE:Easy
LEVEL:3
BALLOON:5
SCOREINIT:6080
SCOREDIFF:
#START
1110,
700000000000000000000000000000080000000000000000,
1010,
1,
1010,
2020,
1010,
1,
1010,
2020,
1,
1,
1010,
1110,
1020,
1020,
1010,
1110,
1010,
1,
1010,
2020,
1,
1,
1010,
1110,
1020,
1020,
1010,
1110,
3030,
3040,
4040,
3040,
3030,
3040,
5,
000000000000000008000000000000000000000000000000,
#GOGOSTART
1110,
1010,
1110,
1020,
1110,
1010,
1110,
3330,
#GOGOEND
1010,
2020,
1010,
2200,
1010,
2020,
1010,
2200,
500000000000000000000008000000000000000000000000,
1110,
2220,
1110,
600000000000000008000000000000000000000000000000,
1010,
2020,
#GOGOSTART
1110,
1020,
1110,
1010,
1110,
3330,
1110,
1010,
1110,
4040,
1110,
1010,
1110,
3330,
1110,
3330,
3330,
#GOGOEND
0,
#END
