//TJADB Project
TITLE:Ridge de Ridge de GO! GO! GO! -GMT Mashup-
TITLEJA:リッジでリッジで GO!GO!GO! -GMT mashup-
SUBTITLE:--Shinji Hosoe (Sampling Masters)/RIDGE RACER & Densha de GO!
SUBTITLEJA:Hiro(SEGA)
BPM:146
WAVE:Ridge de Ridge de GO! GO! GO! -GMT Mashup-.ogg
OFFSET:-1.803
DEMOSTART:14.953

COURSE:Oni
LEVEL:9
BALLOON:15
SCOREINIT:510
SCOREDIFF:128
#START
3,
,
2222222222222220,
3333,
1020102101203020,
1020102101203020,
1020102101203022,
14040404,
1020120101203020,
1020120101203020,
1020120101203000,
#SCROLL 4
7008,
#SCROLL 1
1021012020002022,
000000100000100010001000200200200000200000200000,
1021012020002022,
112112112211,
2021012020002022,
0010010022202020,
2021012020002022,
100020002000100020002000100200200100200200100200,
11400000,
1022102012201020,
1022102010012210,
1022102012201020,
1022102010012020,
1022102012201020,
1022102010012210,
1140,
#SCROLL 4
600000000000000000000000000000000008000000000000,
#SCROLL 1
1020102101201020,
1020120102012022,
1020102101201020,
3040304030401222,
1020102101201020,
1020120102012022,
1020102101201020,
3000300040040040,
1020220102010000,
#SCROLL 4
5,
000000000000000000000000000000000008000000000000,
#SCROLL 1
1022102010012210,
1020220202022000,
1020220200002200,
1020220202022000,
1022102212212212,//45
#GOGOSTART
1102120211021210,
1102120211221202,
1102120211021210,
1102120211221212,
1122121112221022,
1122121112221202,
1122121112221000,
#SCROLL 4
600000000000000000000000000000000008000000000000,
#SCROLL 1
1101102211011000,
1101102211011000,
1101102211011000,
3333,
4011201122102010,
4011201122102010,
4011201122112000,//60
#GOGOEND
#SCROLL 4
3,//61
#GOGOSTART
#SCROLL 1
1020120101211022,
1020120101221012,
1020120101211020,
43434343,
1120120101211022,
1120120101221012,
1120120101211020,
4030403040040040,
#SCROLL 2
300000300000500000000000000000000000000008000000,
#SCROLL 2.5
300000300000500000000000000000000000000008000000,
#SCROLL 3
300000300000500000000000000000000000000008000000,
#SCROLL 3.5
33400000,//73
#GOGOEND
#END

COURSE:Hard
LEVEL:7
BALLOON:11,3
SCOREINIT:570
SCOREDIFF:148
#START
,
,
2220222022202220,
3333,
0000200011102000,
2000200011102000,
0000200011102000,
04040404,
0000200011102000,
2000200011102000,
0000200011102000,
#SCROLL 4
7008,
#SCROLL 1
1000001020000022,
2010010020000000,
10012000,
111111100000,
1020001020000022,
2010010020000000,
12012000,
100010001000100010001000100000000100000000100000,
33400000,
12101210,
1011102010000000,
12101210,
1011101020002020,
12101210,
1011102010000000,
1140,
#SCROLL 4
600000000000000000000008000000000000000000000000,
#SCROLL 1
1020102100001000,
1020100012002000,
1020102100001000,
34343430,
1020102100001000,
1020100012002000,
1020102100001000,
3000300040040040,
1200,
#SCROLL 4
5,
000000000000000000000000000000000008000000000000,
#SCROLL 1
10101011,
1020220202020000,
1020220200000000,
1020220202020000,
1000100022222020,//45
#GOGOSTART
1020100012021000,
1020100012021010,
1020100012021000,
1020100012021010,
1020100012021000,
1020100012021010,
1020100012021000,
#SCROLL 4
600000000000000000000000000000000008000000000000,
#SCROLL 1
1101100011011000,
1101100011011000,
1101100011011000,
3333,
4022202220222000,
4022202220222000,
4022202220222000,//60
#GOGOEND
#SCROLL 4
90098000,//61
#GOGOSTART
#SCROLL 1
1020100012021000,
1020102012021010,
1020100012021000,
43434343,
1020100012021000,
1020102012021010,
1020100012021000,
4030403040040040,
#SCROLL 2
300000300000500000000000000000000000000008000000,
300000300000500000000000000000000000000008000000,
300000300000500000000000000000000000000008000000,
33400000,//73
#GOGOEND
,
#END

COURSE:Normal
LEVEL:6
BALLOON:8,3
SCOREINIT:570
SCOREDIFF:153
#START
,
,
2222,
3333,
00101110,
10101110,
00101110,
04040404,
00101110,
10101110,
00101110,
#SCROLL 4
7008,
#SCROLL 1
10012000,
0010010020000000,
10012000,
12121210,
10012000,
0010010020000000,
10012000,
12121210,
33400000,
10101110,
10111000,
10101110,
1120,
10101110,
10111000,
1140,
#SCROLL 4
600000000000000000000008000000000000000000000000,
#SCROLL 1
12101010,
1020100012002000,
12101210,
34343430,
12101010,
1020100012002000,
12101010,
3340,
1200,
#SCROLL 4
5,
000000000000000000000000000000000008000000000000,
#SCROLL 1
10101011,
22,
2220,
22202020,
10101011,//45
#GOGOSTART
12101210,
12101011,
12101210,
12102020,
12101210,
12101011,
12101210,
#SCROLL 4
600000000000000000000000000000000008000000000000,
#SCROLL 1
12001200,
12001200,
12001200,
3333,
4000100012002000,
4000100012002000,
4000100012002000,//60
#GOGOEND
#SCROLL 4
90098000,//61
#GOGOSTART
#SCROLL 1
12101210,
1020102012001000,
12101210,
43434340,
12101210,
1020102012001000,
12101210,
43434340,
#SCROLL 2
300000300000500000000000000000000008000000000000,
300000300000500000000000000000000008000000000000,
300000300000500000000000000000000008000000000000,
33300000,//73
#GOGOEND
,
#END

COURSE:Easy
LEVEL:4
BALLOON:5,2
SCOREINIT:440
SCOREDIFF:120
#START
,
,
,
3333,
0101,
0111,
0101,
04040404,
0101,
0111,
0101,
#SCROLL 4
78,
#SCROLL 1
12,
10012000,
12,
1212,
12,
10012000,
12,
1212,
3400,
1112,
1110,
1112,
1120,
1112,
1110,
1140,
#SCROLL 4
600000000000000000000008000000000000000000000000,
#SCROLL 1
1202,
1202,
1202,
3333,
1202,
1202,
1202,
3340,
1200,
#SCROLL 4
5,
000000000000000000000000000000000008000000000000,
#SCROLL 1
1110,
2200,
2200,
2200,
1110,//45
#GOGOSTART
1122,
1110,
1122,
1120,
1122,
1110,
1122,
#SCROLL 4
600000000000000000000000000000000008000000000000,
#SCROLL 1
11,
11,
11,
3333,
4111,
4111,
4111,//60
#GOGOEND
#SCROLL 4
90098000,//61
#GOGOSTART
#SCROLL 1
2211,
2210,
2211,
43434340,
2211,
2210,
2211,
43434340,
#SCROLL 2
300000300000500000000000000000000008000000000000,
300000300000500000000000000000000008000000000000,
300000300000500000000000000000000008000000000000,
3300,//73
#GOGOEND
,
#END
