//TJADB Project
TITLE:Scarlet Keisatsu no Ghetto Patrol 24-ji
TITLEJA:スカーレット警察のゲットーパトロール24時
SUBTITLE:--Touhou Project Arrangement - Shichijou Lettuce Group
BPM:160
WAVE:Scarlet Keisatsu no Ghetto Patrol 24-ji.ogg
OFFSET:-0.378
DEMOSTART:21.378
SONGVOL:100
SEVOL:100
SCOREMODE:2

COURSE:Edit
LEVEL:9
BALLOON:2,2,2,2
#START
1210102110210110,
1210102011201020,
1210102110210110,
4030211011201020,
1210102110221202,
1202120212221202,
1210102110210110,
4030211010222222,
2222201021040010,
2200102201201122,
1210201020020010,
2210201200201120,
2200102200201120,
2210112201201020,
2210221022210020,
0210102010112200,
#GOGOSTART
3011201210112012,
1011201210112012,
#GOGOEND
7080201020021020,
7080220200201120,
#GOGOSTART
3021202210212022,
1021202210212022,
#GOGOEND
7080221022210020,
1012101012112200,
#GOGOSTART
3021101220212012,
1021101220212012,
1021101220212202,
1121221270802000,
2212102022121121,
2212102122021121,
#GOGOEND
2220404040404040,
101010100000200200200200100200100200100100101010,
#GOGOSTART
1110401210220120,
2200102201112222,
1120101211120030,
0022222212121111,
1120101210220120,
2200102201112222,
1120112011220030,
0022222212121111,
1120101211220020,
2222221212121020,
1120101211120030,
0022222212121111,
2222222222222222,
1212121212121212,
1111111111111111,
0022222212121111,
#GOGOEND
200000200200000010000000100000001000200200000000,
200000200200000010200000100000001000200000200000,
200000200200000010000000100000001000200200000000,
200000200200000000100000100000001000200010200000,
200200000000200010000000100000001000200200000000,
200200000000200010000000100000001000200200000000,
200200000000200010000000100000001000200200000000,
200200000200200000100000100000001000200010200000,
#GOGOSTART
1011201210112012,
1021202211212212,
1121220211212212,
100100200100202020200200101010100100200000400000,
100200000100200000100200100200001000200000100200,
100200000100200000100000100200001000200000200100,
000200100200200100200200100200001000200200100200,
000000600000000000000000000000000000008000000000,
#GOGOEND
1210102100220010,
1210102000201010,
2112112121121120,
4030211002202202,
1022102210221012,
1022122210221212,
1022122212221212,
1222122212221212,
#BARLINEOFF
#SCROLL 2
000000030000000030000000030000000000000000000000,
#BPMCHANGE 158.7
0,
#BRANCHSTART p,95,95
#N
#MEASURE 5/8
#BPMCHANGE 158.2
#BARLINEOFF
,
#MEASURE 4/4
#BPMCHANGE 157.2
#BARLINEON
1111111111111111,
#BARLINEOFF
#MEASURE 4/4
1111111111111111,
1111101030000000,
#E
#MEASURE 5/8
#BPMCHANGE 158.2
#BARLINEOFF
,
#MEASURE 4/4
#BPMCHANGE 157.2
#BARLINEON
1111111111111111,
#BARLINEOFF
#MEASURE 4/4
1111111111111111,
1111101030000000,
#M
#MEASURE 5/8
#BPMCHANGE 158.2
#BARLINEOFF
,
#MEASURE 4/4
#BPMCHANGE 157.2
#BARLINEON
111111111111111111111111,
#BARLINEOFF
#MEASURE 4/4
111111111111111111111111,
101010101010100100100100300000000000000000000000,
#BRANCHEND
,
#END

COURSE:Oni
LEVEL:8
BALLOON:2,2,2,40
#START
1020102010201122,
11212110,
1010112000000000,
2020222000002000,
1020102010201122,
11212110,
1110000000002000,
2020222000002000,
11221020,
1020112010000000,
11221020,
1020112010000000,
11221020,
1020111010000000,
1010202010111000,
500000000000000000000000000000000008000000000000,
#GOGOSTART
1011202210122020,
1011202210122000,
#GOGOEND
2220102020020000,
2220100200000000,
#GOGOSTART
1011202210122000,
1011202210122000,
#GOGOEND
2220212010220020,
2220200020201120,
#GOGOSTART
2022201220122021,
2022202210222012,
2012202120222022,
1122112022200000,
1011101120222010,
1211102022102010,
#GOGOEND
1110102020202020,
202020200200200000000000200000000000200000202020,
#GOGOSTART
2011102010201020,
3011100020102000,
4022201020102010,
4022222011101110,
3011102010201020,
3011101010112020,
4022202020201000,
500000000000000000000000000000000008000000000000,
3011102010201020,
3011102011201020,
4022201010202000,
500000000000000000000000000000000008000000000000,
3011102010201020,
3011102011101020,
400000200200200000202000000000202000000000500000,
000000000000000000000000000000000008000000000000,
#GOGOEND
1000100010001102,
2000200020002212,
1000100010001102,
2000200020002212,
1000100020002211,
2000100020001122,
1000100020002211,
20101012,
#GOGOSTART
2022201220222012,
2022202210002000,
2022202120222012,
2022202120122000,
1001002010010020,
2002001020020020,
1001002010010010,
2002001020020020,
#GOGOEND
1020102010201122,
11212110,
1010112000000000,
2020222000002000,
1020102010201122,
11212110,
1010222000002000,
2020222011211211,
#BARLINEOFF
000000000700008007000080007000080000000000000000,
#BPMCHANGE 158.7
,
#MEASURE 5/8
#BPMCHANGE 158.2
1110000000,
#BARLINEON
#MEASURE 4/4
#BPMCHANGE 157.2
7,
#BARLINEOFF
#MEASURE 4/4
,
08,
,
#END

COURSE:Hard
LEVEL:5
BALLOON:10,2,2,2,33
#START
10000011,
1001,
1010111000000000,
20220022,
10101011,
1001,
12000000,
20220022,
1122,
10112000,
1122,
10112000,
1122,
10111000,
10101110,
500000000000000000000000000000000008000000000000,
#GOGOSTART
1011100020002000,
1011100020002000,
#GOGOEND
2220200020000000,
2220200020000000,
#GOGOSTART
1011100020002000,
1011100020002000,
#GOGOEND
2220200020000000,
2220200020000000,
#GOGOSTART
2022200020002000,
2022200020002000,
2022200020002000,
2000200022200000,
1011100020002000,
1011100020002000,
#GOGOEND
7,
8212,
#GOGOSTART
1011100010002000,
1011100020002000,
2022200020002000,
2022200020002000,
1011100010002000,
1011100010001000,
2022200010002050,
000000000000000000000000000000000008000000000000,
1011100010001000,
1011100010001000,
2022200020002000,
500000000000000000000000000000000008000000000000,
1011100010001000,
1011100010001000,
2022202000200050,
000000000000000000000000000000000008000000000000,
#GOGOEND
10102022,
10202012,
10102022,
10202012,
10102022,
10202012,
10102022,
10202012,
#GOGOSTART
2022200020002000,
2022200020002000,
2022200020222000,
2022200020222000,
1001001010010010,
2002002020020020,
1001001010010010,
2002002020020020,
#GOGOEND
10000011,
1,
1010111000000000,
2020222000001000,
11101011,
10101120,
1010111000000000,
2020222000000000,
#BARLINEOFF
000000000700008007000080007000080000000000000000,
#BPMCHANGE 158.7
,
#MEASURE 5/8
#BPMCHANGE 158.2
1110000000,
#BARLINEON
#MEASURE 4/4
#BPMCHANGE 157.2
7,
#BARLINEOFF
#MEASURE 4/4
,
08,
,
#END

COURSE:Normal
LEVEL:2
BALLOON:30,25
#START
1,
3,
1,
4,
1,
3,
1,
4,
12,
1110,
12,
1110,
12,
1110,
1011,
500000000000000000000000000000000008000000000000,
#GOGOSTART
1120,
1120,
#GOGOEND
4002,
4,
#GOGOSTART
1120,
1120,
#GOGOEND
4,
22,
#GOGOSTART
2220,
22,
2220,
22,
1120,
1120,
#GOGOEND
500000000000000000000000000000000000000000000008,
0222,
#GOGOSTART
3012,
3001,
400000000000000000000000500000000000000000000008,
0111,
2012,
31,
40001005,
000000000000000000000000000000000008000000000000,
3012,
31,
40001005,
000000000000000000000000000000000008000000000000,
3012,
3001,
40020205,
000000000000000000000000000000000008000000000000,
#GOGOEND
1022,
1011,
2022,
1011,
2022,
1011,
2022,
1,
#GOGOSTART
2220,
2220,
2222,
2222,
7,
,
,
8,
#GOGOEND
3,
3,
3110,
20020000,
1112,
1112,
1110,
20020000,
#BARLINEOFF
000000500000000000000000000000000000000008000000,
#BPMCHANGE 158.7
,
#MEASURE 5/8
#BPMCHANGE 158.2
11000,
#BARLINEON
#MEASURE 4/4
#BPMCHANGE 157.2
9,
#BARLINEOFF
#MEASURE 4/4
09,
08,
,
#END

COURSE:Easy
LEVEL:2
BALLOON:25,20
#START
1,
1,
1,
2,
1,
1,
1,
2,
1,
11,
1,
11,
1,
11,
11,
500000000000000000000000000008000000000000000000,
#GOGOSTART
11,
11,
#GOGOEND
2,
2,
#GOGOSTART
11,
11,
#GOGOEND
2,
2,
#GOGOSTART
22,
22,
22,
22,
12,
12,
#GOGOEND
5,
000000000008000000000000000000000000000000000000,
#GOGOSTART
3110,
3110,
4220,
4,
3110,
3110,
4220,
500000000000000000000000000008000000000000000000,
3110,
3110,
4220,
4,
3110,
3110,
4220,
500000000000000000000000000008000000000000000000,
#GOGOEND
1,
2,
1,
2,
1,
2,
1,
2,
#GOGOSTART
22,
22,
22,
22,
7,
,
,
8,
#GOGOEND
3,
3,
3,
500000000000000000000000000008000000000000000000,
1110,
1110,
1110,
2200,
#BARLINEOFF
,
#BPMCHANGE 158.7
,
#MEASURE 5/8
#BPMCHANGE 158.2
,
#BARLINEON
#MEASURE 4/4
#BPMCHANGE 157.2
9,
#BARLINEOFF
#MEASURE 4/4
09,
08,
,
#END
